img image001 image001 image001 image001 image001 image001 image001 image001 image001 image001 image001 image001 image001 image001 image001 image001

Planets Sun Sun Sun
Статистика раздачи
Автор: Снежана | Размер: 2.29 ГБ | Добавлен: 24 сен 2018
Раздают: 15    Качают: 3
Скачать торрент
Скачать торрент
Описание торрента

СообщениеДобавлено: 24 сен 2018 

Убийца 2. Против всех / Sicario: Day of the Soldado / Sicario 2: Soldado

Перевод: Авторский (одноголосый) Дмитрий Есарев, субтитры: английские
Формат: HDRip-AVC, MKV, H.264, AC3
Страна: США, Италия
Режиссер: Стефано Соллима
Жанр: боевик, триллер, драма, криминал
Продолжительность: 02:02:23
Год выпуска: 2018

В ролях: Бенисио Дель Торо, Джош Бролин, Изабела Монер, Джеффри Донован, Кэтрин Кинер, Мануэль Рульфо, Мэттью Модайн, Шей Уигэм, Элиас Гарза, Ховард Фергюсон мл.

Описание: Обстановка на американо-мексиканской границе накаляется, когда наркокартели начинают переправлять в США террористов. Чтобы дать им отпор федеральный агент Мэтт Грейвер вынужден вновь объединиться с не самым надежным напарником — Алехандро.



Видео: 1024x426 (2.40:1), 23.976 fps, AVC MPEG-4 (H.264), ~1785 kbps, 0.171 bit/pixel
Аудио #1: Русский: 48 kHz, AC3 Dolby Digital, 6 ch, ~448 kbps [Авторский (одноголосый)]
Аудио #2: Английский: 48 kHz, AC3 Dolby Digital, 6 ch, ~448 kbps [Оригинал]


Format : Matroska
Format version : Version 2
File size : 2.29 GiB
Duration : 2 h 2 min
Overall bit rate : 2 683 kb/s
Movie name : Sicario Day of the Soldado 2018 from ExKinoRay
Encoded date : UTC 2018-09-22 13:11:23
Writing application : mkvmerge v5.6.0 ('Kenya Kane') built on May 27 2012 16:44:04
Writing library : libebml v1.2.3 + libmatroska v1.3.0

Video
ID : 1
Format : AVC
Format/Info : Advanced Video Codec
Format profile :
Format settings, CABAC : Yes
Format settings, ReFrames : 12 frames
Codec ID : V_MPEG4/ISO/AVC
Duration : 2 h 2 min
Bit rate : 1 785 kb/s
Width : 1 024 pixels
Height : 426 pixels
Display aspect ratio : 2.40:1
Frame rate mode : Constant
Frame rate : 23.976 (23976/1000) FPS
Color space : YUV
Chroma subsampling : 4:2:0
Bit depth : 8 bits
Scan type : Progressive
Bits/(Pixel*Frame) : 0.171
Stream size : 1.48 GiB (65%)
Title : Enigma
Writing library : x264 core 152 r2851 ba24899
Encoding settings : cabac=1 / ref=12 / deblock=1:-2:-2 / analyse=0x3:0x113 / me=umh / subme=10 / psy=1 / psy_rd=1.05:0.10 / mixed_ref=1 / me_range=32 / chroma_me=1 / trellis=2 / 8x8dct=1 / cqm=0 / deadzone=21,11 / fast_pskip=0 / chroma_qp_offset=-3 / threads=12 / lookahead_threads=2 / sliced_threads=0 / nr=0 / decimate=0 / interlaced=0 / bluray_compat=0 / constrained_intra=0 / bframes=9 / b_pyramid=2 / b_adapt=2 / b_bias=0 / direct=3 / weightb=1 / open_gop=0 / weightp=2 / keyint=240 / keyint_min=23 / scenecut=40 / intra_refresh=0 / rc=2pass / mbtree=0 / bitrate=1785 / ratetol=1.0 / qcomp=0.60 / qpmin=0 / qpmax=51 / qpstep=4 / cplxblur=20.0 / qblur=0.5 / ip_ratio=1.40 / pb_ratio=1.30 / aq=1:1.00
Language : English
Default : Yes
Forced : No
Color range : Limited
Color primaries : BT.709
Transfer characteristics : BT.709
Matrix coefficients : BT.709

Audio #1
ID : 2
Format : AC-3
Format/Info : Audio Coding 3
Mode extension : CM (complete main)
Format settings, Endianness : Big
Codec ID : A_AC3
Duration : 2 h 2 min
Bit rate mode : Constant
Bit rate : 448 kb/s
Channel(s) : 6 channels
Channel positions : Front: L C R, Side: L R, LFE
Sampling rate : 48.0 kHz
Frame rate : 31.250 FPS (1536 spf)
Compression mode : Lossy
Stream size : 392 MiB (17%)
Title : AVO (Esarev)
Language : Russian
Default : Yes
Forced : No

Audio #2
ID : 3
Format : AC-3
Format/Info : Audio Coding 3
Mode extension : CM (complete main)
Format settings, Endianness : Big
Codec ID : A_AC3
Duration : 2 h 2 min
Bit rate mode : Constant
Bit rate : 448 kb/s
Channel(s) : 6 channels
Channel positions : Front: L C R, Side: L R, LFE
Sampling rate : 48.0 kHz
Frame rate : 31.250 FPS (1536 spf)
Compression mode : Lossy
Stream size : 392 MiB (17%)
Language : English
Default : No
Forced : No

Text #1
ID : 4
Format : UTF-8
Codec ID : S_TEXT/UTF8
Codec ID/Info : UTF-8 Plain Text
Title : Full
Language : English
Default : No
Forced : No

Text #2
ID : 5
Format : UTF-8
Codec ID : S_TEXT/UTF8
Codec ID/Info : UTF-8 Plain Text
Title : SDH
Language : English
Default : No
Forced : No

Menu
00:00:00.000 : en:00:00:00.000
00:06:38.189 : en:00:06:38.189
00:14:45.593 : en:00:14:45.593
00:18:48.502 : en:00:18:48.502
00:27:08.335 : en:00:27:08.335
00:34:08.964 : en:00:34:08.964
00:42:28.671 : en:00:42:28.671
00:51:10.442 : en:00:51:10.442
01:00:58.071 : en:01:00:58.071
01:09:20.114 : en:01:09:20.114
01:14:26.796 : en:01:14:26.796
01:23:24.958 : en:01:23:24.958
01:28:41.358 : en:01:28:41.358
01:35:38.900 : en:01:35:38.900
01:41:44.348 : en:01:41:44.348
01:46:15.494 : en:01:46:15.494












   Похожие торренты   Торрент   Размер 
В этой теме нет новых непрочитанных сообщений. Убийца 2. Против всех / Sicario: Day of the Soldado / Sicario 2: Soldado (Стефано Соллима) [2018, боевик, триллер, драма, криминал, HDRip-AVC] MVO

17 | 9

2.08 ГБ

В этой теме нет новых непрочитанных сообщений. Убийца 2. Против всех / Sicario: Day of the Soldado / Sicario 2: Soldado (Стефано Соллима) [2018, боевик, триллер, драма, криминал, HDRip] AVO

101 | 3

1.46 ГБ

В этой теме нет новых непрочитанных сообщений. Убийца 2. Против всех / Sicario: Day of the Soldado / Sicario 2: Soldado (Стефано Соллима) [2018, боевик, триллер, драма, криминал, HDRip] DUB / Боевики /Action

34 | 4

1.39 ГБ

В этой теме нет новых непрочитанных сообщений. Убийца 2. Против всех / Sicario: Day of the Soldado / Sicario 2: Soldado (Стефано Соллима) [2018, боевик, триллер, драма, криминал, BDRip-AVC] DUB / Фильмы HDRip

54 | 1

2.86 ГБ

В этой теме нет новых непрочитанных сообщений. Убийца 2. Против всех / Sicario: Day of the Soldado / Sicario 2: Soldado (Стефано Соллима) [2018, боевик, триллер, драма, криминал, WEBRip-AVC] VO

32 | 7

1.45 ГБ

В этой теме нет новых непрочитанных сообщений. Убийца 2. Против всех / Sicario: Day of the Soldado / Sicario 2: Soldado (Стефано Соллима) [2018, боевик, триллер, драма, криминал, WEB-DLRip-AVC] VO

152 | 10

2.14 ГБ

В этой теме нет новых непрочитанных сообщений. Убийца 2. Против всех / Sicario: Day of the Soldado / Sicario 2: Soldado (Стефано Соллима) [2018, боевик, триллер, драма, криминал, WEBRip] MVO

87 | 7

1.37 ГБ




Вы не можете начинать темы
Вы не можете отвечать на сообщения
Вы не можете редактировать свои сообщения
Вы не можете удалять свои сообщения
Вы не можете добавлять вложения

Перейти:  
 Вход
ppkBB3cker v.2 © 2008-2014 @ PPK
[ Time : 0.041s | 18 Queries | GZIP : Off ]

cron