img image001 image001 image001 image001 image001 image001 image001 image001 image001 image001 image001 image001 image001 image001 image001 image001

Planets Sun Sun Sun
Статистика раздачи
Автор: Снежана | Размер: 1.6 ГБ | Добавлен: 24 сен 2018
Раздают: 3    Качают: 4
Скачать торрент
Скачать торрент
Описание торрента

СообщениеДобавлено: 24 сен 2018 

Жизнь и цвет / Vida y color


Перевод: Авторский одноголосый (Сергей Кузнецов)
Субтитры: английские внешние
Формат: DVDRip, AVI, XviD, AC3
Страна: Испания
Режиссер: Сантьяго Табернеро
Жанр: драма
Продолжительность: 01:45:22
Год выпуска: 2005

В ролях: Хунио Вальверде, Сильвия Абаскаль, Хоан Дальмау, Надя Де Сантьяго, Мигель Анхель Сильвестре, Наталия Абаскал, Ана Вахенер, Адольфо Фернандес, Андрес Лима, Кармен Мачи

Описание: Испания 70-х. В провинциальном городке живет 13-летний мальчик. Его мама больна раком, старший брат где-то далеко в тюрьме. Одноклассники издеваются над ним, считая белой вороной. Ему хочется поскорее повзрослеть. У него есть подружки Рамона и Сара. Но ему становится известно, что их насилует какой-то мужчина, живущий неподалеку в подземном убежище…


Видео: 720x320 (2.25:1), 25 fps, XviD ~1773 kbps avg, 0.308 bit/pixel
Аудио #1: Русский: 48 kHz, AC3 Dolby Digital, 2/0 (L,R) ch, ~192 kbps avg [Авторский одноголосый]
Аудио #2: Испанский: 48 kHz, AC3 Dolby Digital, 2/0 (L,R) ch, ~192 kbps avg [Оригинал]

Общее
Полное имя : Vida.Y.Color.2005.DVDRip.avi
Формат : AVI
Формат/Информация : Audio Video Interleave
Размер файла : 1,60 Гбайт
Продолжительность : 1 ч. 45 м.
Общий поток : 2171 Кбит/сек
Программа кодирования : VirtualDubMod 1.5.10.2 (build 2542/release)
Библиотека кодирования : VirtualDubMod build 2542/release

Видео
Идентификатор : 0
Формат : MPEG-4 Visual
Профиль формата : Advanced Simple@L5
Параметр BVOP формата : 1
Параметр QPel формата : Нет
Параметр GMC формата : Без точки перехода
Параметр матрицы формата : Default (MPEG)
Идентификатор кодека : XVID
Идентификатор кодека/Подсказка : XviD
Продолжительность : 1 ч. 45 м.
Битрейт : 1773 Кбит/сек
Ширина : 720 пикселей
Высота : 320 пикселей
Соотношение сторон : 2,25:1
Частота кадров : 25,000 кадров/сек
Цветовое пространство : YUV
Субдискретизация насыщенности : 4:2:0
Битовая глубина : 8 бит
Тип развёртки : Прогрессивная
Метод сжатия : С потерями
Бит/(Пиксели*Кадры) : 0.308
Размер потока : 1,30 Гбайт (82%)
Библиотека кодирования : XviD 1.2.1 (UTC 2008-12-04)

Аудио #1
Идентификатор : 1
Формат : AC-3
Формат/Информация : Audio Coding 3
Расширение режима : CM (complete main)
Параметр Endianness формата : Big
Идентификатор кодека : 2000
Продолжительность : 1 ч. 45 м.
Вид битрейта : Постоянный
Битрейт : 192 Кбит/сек
Каналы : 2 канала
Расположение каналов : Front: L R
Частота : 48,0 КГц
Метод сжатия : С потерями
Размер потока : 145 Мбайт (9%)
Выравнивание : Разделение по промежуткам
Продолжительность промежутка : 40 мс. (1,00 видеокадр)
Время предзагрузки промежутка : 500 мс.

Аудио #2
Идентификатор : 2
Формат : AC-3
Формат/Информация : Audio Coding 3
Расширение режима : CM (complete main)
Параметр Endianness формата : Big
Идентификатор кодека : 2000
Продолжительность : 1 ч. 45 м.
Вид битрейта : Постоянный
Битрейт : 192 Кбит/сек
Каналы : 2 канала
Расположение каналов : Front: L R
Частота : 48,0 КГц
Метод сжатия : С потерями
Размер потока : 145 Мбайт (9%)
Выравнивание : Разделение по промежуткам
Продолжительность промежутка : 40 мс. (1,00 видеокадр)
Время предзагрузки промежутка : 500 мс.











   Похожие торренты   Торрент   Размер 
В этой теме нет новых непрочитанных сообщений. Цвет Рая / Цвет Бога / Rang-e khoda / The Color of Paradise (1999) DVDRip-AVC | P

60 | 21

1.46 ГБ

В этой теме нет новых непрочитанных сообщений. В сердце лжи / Цвет лжи / Au coeur du mensonge / The Color of Lies (1999) DVDRip | P2

2 | 2

1.46 ГБ

В этой теме нет новых непрочитанных сообщений. Восьмой цвет радуги / A Oitava Cor do Arco-íris / The Eighth Color of the Rainbow (2004) DVDRip-AVC

0 | 0

1.35 ГБ

В этой теме нет новых непрочитанных сообщений. Тайная жизнь слов / The Secret Life of Words / La vida secreta de las palabras (2005) BDRip-AVC | P, P2

93 | 8

3.07 ГБ

В этой теме нет новых непрочитанных сообщений. Тайная жизнь слов / The Secret Life of Words / La vida secreta de las palabras (2005) HDRip-AVC | iPhone

2 | 2

637.71 МБ

В этой теме нет новых непрочитанных сообщений. Моя безумная жизнь / Mi vida loca (1993) DVDRip | P2

62 | 9

1.46 ГБ

В этой теме нет новых непрочитанных сообщений. Прожигая жизнь / La Gran vida (2000) DVDRip -AVC | P

129 | 36

2.7 ГБ




Вы не можете начинать темы
Вы не можете отвечать на сообщения
Вы не можете редактировать свои сообщения
Вы не можете удалять свои сообщения
Вы не можете добавлять вложения

Перейти:  
 Вход
ppkBB3cker v.2 © 2008-2014 @ PPK
[ Time : 0.033s | 16 Queries | GZIP : Off ]

cron