img image001 image001 image001 image001 image001 image001 image001 image001 image001 image001 image001 image001 image001 image001 image001 image001

Planets Sun Sun Sun
Статистика раздачи
Автор: Снежана | Размер: 1.46 ГБ | Добавлен: 24 сен 2018
Раздают: 0    Качают: 0
Скачать торрент
Скачать торрент
Описание торрента

СообщениеДобавлено: 24 сен 2018 

Камень желаний / Shorts


Перевод: Профессиональный (многоголосый закадровый), субтитры: отсутствуют
Формат: HDRip-AVC, MKV, H.264, AC3
Страна: США, ОАЭ
Режиссер: Роберт Родригес
Жанр: фантастика, фэнтези, комедия, семейный
Продолжительность: 01:28:46
Год выпуска: 2009
В ролях: Джимми Беннетт, Кэт Деннингз, Тревор Ганьон, Ребел Родригес, Джейк Шорт, Лесли Манн, Джеймс Спэйдер, Джон Крайер, Уильям Х. Мэйси, Лео Ховард

Описание: Действие фильма развивается в пригороде, где все дома похожи друг на друга, как две капли воды. А все жители работают на некую компанию Black Box, производителя самого крутого коммуникатора в мире. Однажды на 11-летнего мальчика случайно откуда-то падает странный разноцветный камень, и герой с удивлением узнает, что этот булыжник обладает способностью выполнять все желания своего владельца. Хаос в городке начинается незамедлительно.



Видео: 1024x576 (16:9), 23.976 fps, AVC MPEG4 (x264), , ~1961 kbps avg, 0.139 bit/pixel
Аудио: 48 kHz, AC3 Dolby Digital, 3/2 (L,C,R,l,r) + LFE ch, ~384 kbps avg

General
Unique ID : 209025827645606732311366449917343195718 (0x9D40E8F9C700903AB0F8420971326246)
Format : Matroska
Format version : Version 2
File size : 1.46 GiB
Duration : 1h 28mn
Overall bit rate : 2 347 Kbps
Encoded date : UTC 2010-01-19 16:18:21
Writing application : mkvmerge v3.0.0 ('Hang up your Hang-Ups') built on Dec 12 2009 15:20:35
Writing library : libebml v0.7.9 + libmatroska v0.8.1

Video
ID : 1
Format : AVC
Format/Info : Advanced Video Codec
Format profile :
Format settings, CABAC : Yes
Format settings, ReFrames : 8 frames
Codec ID : V_MPEG4/ISO/AVC
Duration : 1h 28mn
Bit rate : 1 961 Kbps
Width : 1 024 pixels
Height : 576 pixels
Display aspect ratio : 16:9
Frame rate mode : Constant
Frame rate : 23.976 fps
Color space : YUV
Chroma subsampling : 4:2:0
Bit depth : 8 bits
Scan type : Progressive
Bits/(Pixel*Frame) : 0.139
Stream size : 1.19 GiB (82%)
Writing library : x264 core 80 r1376M 3feaec2
Encoding settings : cabac=1 / ref=8 / deblock=1:-2:-1 / analyse=0x3:0x113 / me=umh / subme=10 / psy=1 / psy_rd=1.0:0.0 / mixed_ref=0 / me_range=24 / chroma_me=1 / trellis=2 / 8x8dct=1 / cqm=0 / deadzone=21,11 / fast_pskip=0 / chroma_qp_offset=-2 / threads=3 / sliced_threads=0 / nr=1 / decimate=1 / mbaff=0 / constrained_intra=0 / bframes=7 / b_pyramid=0 / b_adapt=2 / b_bias=0 / direct=1 / wpredb=1 / wpredp=0 / keyint=250 / keyint_min=25 / scenecut=40 / rc_lookahead=40 / rc=2pass / mbtree=1 / bitrate=1961 / ratetol=1.0 / qcomp=0.60 / qpmin=10 / qpmax=51 / qpstep=4 / cplxblur=20.0 / qblur=0.5 / ip_ratio=1.40 / aq=1:1.10
Language : English
Default : No
Forced : No

Audio
ID : 2
Format : AC-3
Format/Info : Audio Coding 3
Mode extension : CM (complete main)
Format settings, Endianness : Big
Codec ID : A_AC3
Duration : 1h 28mn
Bit rate mode : Constant
Bit rate : 384 Kbps
Channel(s) : 6 channels
Channel positions : Front: L C R, Side: L R, LFE
Sampling rate : 48.0 KHz
Frame rate : 31.250 fps (1536 spf)
Compression mode : Lossy
Stream size : 244 MiB (16%)
Default : Yes
Forced : No















   Похожие торренты   Торрент   Размер 
В этой теме нет новых непрочитанных сообщений. Факультет / The Faculty (Роберт Родригес ) [1998, ужасы, фантастика, триллер, комедия, BDRip-AVC] MVO / Фантастика

8 | 0

746.81 МБ

В этой теме нет новых непрочитанных сообщений. Камень желаний / Shorts (2009) BDRip 1080р | P

517 | 51

8.21 ГБ

В этой теме нет новых непрочитанных сообщений. Камень желаний / Shorts (2009) BDRip от HQCLUB

15 | 3

1.45 ГБ

В этой теме нет новых непрочитанных сообщений. Рико, Оскар и таинственный камень / Rico, Oskar und der Diebstahlstein (Неле Фолльмар) [2016, комедия, криминал, приключения, семейный, HDRip] MVO / Детское

4 | 0

1.46 ГБ

В этой теме нет новых непрочитанных сообщений. Кролик Питер / Peter Rabbit (Уилл Глак) [2018, фэнтези, комедия, приключения, семейный, HDRip] DUB / Детское

351 | 12

1.45 ГБ

В этой теме нет новых непрочитанных сообщений. От заката до рассвета / From Dusk Till Dawn (Роберт Родригес) [1996, ужасы, фэнтези, боевик, триллер, комедия, криминал, BDRip] 2xMVO / Мистика

11 | 0

1.46 ГБ

В этой теме нет новых непрочитанных сообщений. Снег / Snow (Алекс Замм) [ 2004, фэнтези, комедия, семейный, IPTVRip] DVO+AVO / Детское

2 | 0

1.46 ГБ




Вы не можете начинать темы
Вы не можете отвечать на сообщения
Вы не можете редактировать свои сообщения
Вы не можете удалять свои сообщения
Вы не можете добавлять вложения

Перейти:  
 Вход
ppkBB3cker v.2 © 2008-2014 @ PPK
[ Time : 0.177s | 18 Queries | GZIP : Off ]

cron