img image001 image001 image001 image001 image001 image001 image001 image001 image001 image001 image001 image001 image001 image001 image001 image001

Planets Sun Sun Sun
Статистика раздачи
Автор: Снежана | Размер: 4.09 ГБ | Добавлен: 25 сен 2018
Раздают: 1834    Качают: 38
Скачать торрент
Скачать торрент
Описание торрента

СообщениеДобавлено: 25 сен 2018 

Монстры на каникулах 3: Море зовёт / Hotel Transylvania 3: Summer Vacation

Перевод: Профессиональный (полное дублирование) iTunes
Субтитры: Русские, украинские, английские
Формат: WEB-DL, MKV, H.264, AC3/AAC
Страна: США
Режиссер: Дженнди Тартаковски
Жанр: фэнтези, комедия, приключения, семейный
Продолжительность: 01:37:19
Год выпуска: 2018

В ролях: Адам Сэндлер, Энди Сэмберг, Селена Гомес, Кевин Джеймс, Фрэн Дрешер, Стив Бушеми, Молли Шеннон, Дэвид Спейд, Кигэн-Майкл Ки, Джим Гэффиган/field]

Описание: На этот раз Дракула вместе со своими друзьями отправляется в круиз на шикарном лайнере. Развлечения там на любой вкус: от монстробаскетбола и экзотических экскурсий, до лунных ванн. Неожиданно Дракула влюбляется в капитана корабля — загадочную и прекрасную Эрику, и его дочка Мэвис понимает, что поездка может превратиться в кошмар: ведь Эрика хранит ужасный секрет, который ставит под угрозу существование всех монстров!



Видео: 1920x1032p (1.85:1), 23.976 fps, AVC MPEG-4 (H.264), ~5119 kbps, 0.108 bit/pixel
Аудио #1: Русский: 48 kHz, AC3 Dolby Digital, 6 ch, ~384 kbps [Профессиональный (полное дублирование)]
Аудио #2: Украинский: kHz, AАС-LC, 2 ch, ~127 kbps [Профессиональный (полное дублирование)]
Аудио #3: Английский: 48 kHz, AC3 Dolby Digital, 6 ch, ~384 kbps [Оригинал]

Format : Matroska
Format version : Version 4 / Version 2
File size : 4.09 GiB
Duration : 1 h 37 min
Overall bit rate : 6 017 kb/s
Movie name : Hotel Transylvania 3: Summer Vacation (2018) TeamHD
Encoded date : UTC 2018-09-24 18:37:09
Writing application : mkvmerge v7.3.0 ('Nouages') 64bit built on Oct 22 2014 18:53:34
Writing library : libebml v1.3.0 + libmatroska v1.4.1

Video
ID : 1
Format : AVC
Format/Info : Advanced Video Codec
Format profile : High@L4
Format settings : CABAC / 4 Ref Frames
Format settings, CABAC : Yes
Format settings, ReFrames : 4 frames
Codec ID : V_MPEG4/ISO/AVC
Duration : 1 h 37 min
Bit rate : 5 119 kb/s
Width : 1 920 pixels
Height : 1 032 pixels
Display aspect ratio : 1.85:1
Frame rate mode : Constant
Frame rate : 23.976 (23976/1000) FPS
Color space : YUV
Chroma subsampling : 4:2:0
Bit depth : 8 bits
Scan type : Progressive
Bits/(Pixel*Frame) : 0.108
Stream size : 3.48 GiB (85%)
Language : English
Default : Yes
Forced : No
Color range : Limited
Color primaries : BT.709
Transfer characteristics : BT.709
Matrix coefficients : BT.709

Audio #1
ID : 2
Format : AC-3
Format/Info : Audio Coding 3
Commercial name : Dolby Digital
Codec ID : A_AC3
Duration : 1 h 37 min
Bit rate mode : Constant
Bit rate : 384 kb/s
Channel(s) : 6 channels
Channel layout : L R C LFE Ls Rs
Sampling rate : 48.0 kHz
Frame rate : 31.250 FPS (1536 SPF)
Bit depth : 16 bits
Compression mode : Lossy
Stream size : 267 MiB (6%)
Title : iTunes
Language : Russian
Service kind : Complete Main
Default : Yes
Forced : Yes

Audio #2
ID : 3
Format : AAC LC
Format/Info : Advanced Audio Codec Low Complexity
Codec ID : A_AAC-2
Duration : 1 h 37 min
Bit rate : 127 kb/s
Channel(s) : 2 channels
Channel layout : L R
Sampling rate : 48.0 kHz
Frame rate : 46.875 FPS (1024 SPF)
Compression mode : Lossy
Stream size : 88.3 MiB (2%)
Title : iTunes
Language : Ukrainian
Default : No
Forced : No

Audio #3
ID : 4
Format : AC-3
Format/Info : Audio Coding 3
Commercial name : Dolby Digital
Codec ID : A_AC3
Duration : 1 h 37 min
Bit rate mode : Constant
Bit rate : 384 kb/s
Channel(s) : 6 channels
Channel layout : L R C LFE Ls Rs
Sampling rate : 48.0 kHz
Frame rate : 31.250 FPS (1536 SPF)
Bit depth : 16 bits
Compression mode : Lossy
Stream size : 267 MiB (6%)
Title : Original
Language : English
Service kind : Complete Main
Default : No
Forced : No

Text #1
ID : 5
Format : UTF-8
Codec ID : S_TEXT/UTF8
Codec ID/Info : UTF-8 Plain Text
Duration : 1 h 36 min
Bit rate : 0 b/s
Count of elements : 5
Stream size : 171 Bytes (0%)
Title : Forced
Language : Russian
Default : Yes
Forced : Yes

Text #2
ID : 6
Format : UTF-8
Codec ID : S_TEXT/UTF8
Codec ID/Info : UTF-8 Plain Text
Duration : 1 h 36 min
Bit rate : 76 b/s
Count of elements : 1118
Stream size : 54.4 KiB (0%)
Title : Full
Language : Russian
Default : No
Forced : No

Text #3
ID : 7
Format : UTF-8
Codec ID : S_TEXT/UTF8
Codec ID/Info : UTF-8 Plain Text
Duration : 1 h 36 min
Bit rate : 71 b/s
Count of elements : 1118
Stream size : 50.4 KiB (0%)
Title : Full
Language : Ukrainian
Default : No
Forced : No

Text #4
ID : 8
Format : UTF-8
Codec ID : S_TEXT/UTF8
Codec ID/Info : UTF-8 Plain Text
Duration : 1 h 26 min
Bit rate : 47 b/s
Count of elements : 1098
Stream size : 30.1 KiB (0%)
Title : Full
Language : English
Default : No
Forced : No

Text #5
ID : 9
Format : UTF-8
Codec ID : S_TEXT/UTF8
Codec ID/Info : UTF-8 Plain Text
Duration : 1 h 26 min
Bit rate : 47 b/s
Count of elements : 1098
Stream size : 30.1 KiB (0%)
Title : SDH
Language : English
Default : No
Forced : No

Menu
00:00:00.000 : en:1
00:04:28.935 : en:2
00:09:34.824 : en:3
00:16:02.044 : en:4
00:20:03.075 : en:5
00:24:34.930 : en:6
00:31:12.535 : en:7
00:36:49.205 : en:8
00:44:04.723 : en:9
00:49:57.699 : en:10
00:54:49.740 : en:11
01:00:34.875 : en:12
01:06:12.003 : en:13
01:10:32.262 : en:14
01:13:46.371 : en:15
01:24:56.541 : en:16












   Похожие торренты   Торрент   Размер 
В этой теме нет новых непрочитанных сообщений. Монстры на каникулах 3: Море зовёт / Hotel Transylvania 3: Summer Vacation (Дженнди Тартаковскии) [2018, фэнтези, комедия, приключения, семейный, WEB-DLRip-AVC] 2xDUB (rus, ukr)

48 | 7

1.92 ГБ

В этой теме нет новых непрочитанных сообщений. Монстры на каникулах 3: Море зовёт / Hotel Transylvania 3: Summer Vacation (Дженнди Тартаковски) [2018, фэнтези, комедия, приключения, семейный, WEB-DL 720p] 2xDUB (rus, ukr)

623 | 15

3.33 ГБ

В этой теме нет новых непрочитанных сообщений. Монстры на каникулах 3: Море зовёт / Hotel Transylvania 3: Summer Vacation (Дженнди Тартаковски) [2018, фэнтези, комедия, приключения, семейный, WEB-DLRip] DUB

377 | 5

1.46 ГБ

В этой теме нет новых непрочитанных сообщений. Монстры на каникулах 3: Море зовёт / Hotel Transylvania 3: Summer Vacation (Генндий Тартаковский) [2018, фэнтези, комедия, приключения, семейный, BDRip 1080p] 2xDUB (rus, ukr)

639 | 29

8.03 ГБ

В этой теме нет новых непрочитанных сообщений. Монстры на каникулах 3: Море зовёт / Hotel Transylvania 3: Summer Vacation (Генндий Тартаковский) [2018, фэнтези, комедия, приключения, семейный, BDRip-AVC] 2xDUB (rus, ukr)

34 | 3

1.96 ГБ

В этой теме нет новых непрочитанных сообщений. Монстры на каникулах 3: Море зовёт / Hotel Transylvania 3: Summer Vacation (Генндий Тартаковский) [2018, фэнтези, комедия, приключения, семейный, BDRip 720p] 2xDUB (rus, ukr)

961 | 87

4.53 ГБ

В этой теме нет новых непрочитанных сообщений. Монстры на каникулах 3: Море зовёт / Hotel Transylvania 3: Summer Vacation (Генндий Тартаковский) [2018, фэнтези, комедия, приключения, семейный, BDRip] DUB

107 | 5

1.42 ГБ




Вы не можете начинать темы
Вы не можете отвечать на сообщения
Вы не можете редактировать свои сообщения
Вы не можете удалять свои сообщения
Вы не можете добавлять вложения

Перейти:  
 Вход
ppkBB3cker v.2 © 2008-2014 @ PPK
[ Time : 0.045s | 15 Queries | GZIP : Off ]

cron