img image001 image001 image001 image001 image001 image001 image001 image001 image001 image001 image001 image001 image001 image001 image001 image001

Planets Sun Sun Sun
Статистика раздачи
Автор: Снежана | Размер: 2.83 ГБ | Добавлен: 25 сен 2018
Раздают: 5    Качают: 0
Скачать торрент
Скачать торрент
Описание торрента

СообщениеДобавлено: 25 сен 2018 

Книга Генри / The Book of Henry

Слоган: «Никогда не оставляйте дела незавершенными»

Перевод: Профессиональный (полное дублирование) [SDI Media]
Субтитры: Английские [вшитые отключаемые]
Формат: BDRip-AVC, MKV, H.264, AC3
Страна: США
Режиссер: Колин Треворроу
Жанр: триллер, драма, криминал
Продолжительность: 01:45:09
Год выпуска: 2017
В ролях: Наоми Уоттс, Джейден Либерер, Джейкоб Тремблэ, Сара Силверман, Дин Норрис, Ли Пейс, Мэдди Зиглер, Тоня Пинкинс, Бобби Мойнахан, Джеральдин Хьюз

Описание: 11-летий Генри — гениальный мальчик, живущий в обычном американском пригороде. Он не по годам рассудителен, всегда заступается за младшего брата, ведет финансы своей матери, однако даже с его умением просчитывать любую ситуацию на несколько ходов вперед мальчишке удается далеко не все — например, он ничем не может помочь соседской девочке-сверстнице, с которой жестоко обращается ее отчим-полицейский. Звонки в службу опеки, жалобы в полицию и разговоры со школьными учителями ни к чему не приводят, и тогда Генри решается на отчаянные шаги, но внезапно открывшаяся болезнь не позволяет мальчику самому воплотить задумку в жизнь. Генри передает матери свои записи, где подробно описана операция, которая освободит соседку от угнетений тирана…


Видео: 1024x512 (2,000:1), 23.976 fps, AVC MPEG-4 (H.264), ~2600 kbps, 0.207 bit/pixel
Аудио #1: Русский: 48 kHz, AC3 Dolby Digital, 2/0 (L,R) ch, ~384 kbps [Профессиональный (полное дублирование)]
Аудио #2: Русский: 48 kHz, AC3 Dolby Digital, 3/2 (L,C,R,l,r) + LFE ch, ~448 kbps [Профессиональный (полное дублирование)]
Аудио #3: Английский: 48 kHz, AC3 Dolby Digital, 3/2 (L,C,R,l,r) + LFE ch, ~448 kbps [Оригинал]



Общее
Уникальный идентификатор : 131019267064918590888318559836284053707 (0x62916499E44015993C673347870AE8CB)
Полное имя : F:\Диск\01. ФИЛЬМЫ\Книга Генри The Book of Henry 2017 BDRip 1080p\The Book of Henry.2017.BDRip-AVC.mkv
Формат : Matroska
Версия формата : Version 4
Размер файла : 2,83 Гбайт
Продолжительность : 1 ч. 45 м.
Общий поток : 3855 Кбит/сек
Дата кодирования : UTC 2018-09-24 12:11:27
Программа кодирования : mkvmerge v25.0.0 ('Prog Noir') 64-bit
Библиотека кодирования : libebml v1.3.6 + libmatroska v1.4.9 / Lavf57.71.100
Примечание : Rip by Basma4i&TorrNADO
ENCODING_INFO : MATROSKA,WEBM > MKV Пользовательский / H264 > X264 ABR 2600kbps HQ / AC3 > AC3 CBR 384kbps / DTS > AC3 CBR 448kbps

Видео
Идентификатор : 1
Формат : AVC
Формат/Информация : Advanced Video Codec
Профиль формата :
Настройки формата : CABAC / 9 Ref Frames
Параметр CABAC формата : Да
Параметр RefFrames формата : 9 кадров
Идентификатор кодека : V_MPEG4/ISO/AVC
Продолжительность : 1 ч. 45 м.
Битрейт : 2600 Кбит/сек
Ширина : 1024 пикселя
Высота : 512 пикселей
Соотношение сторон : 2,000
Режим частоты кадров : Постоянный
Частота кадров : 23,976 (24000/1001) кадра/сек
Цветовое пространство : YUV
Субдискретизация насыщенности : 4:2:0
Битовая глубина : 8 бит
Тип развёртки : Прогрессивная
Бит/(Пиксели*Кадры) : 0.207
Размер потока : 1,89 Гбайт (67%)
Библиотека кодирования : x264 core 155 r2901M 7d0ff22
Настройки программы : cabac=1 / ref=10 / deblock=1:-3:-3 / analyse=0x3:0x133 / me=umh / subme=10 / psy=1 / psy_rd=1.00:0.20 / mixed_ref=1 / me_range=32 / chroma_me=1 / trellis=2 / 8x8dct=1 / cqm=0 / deadzone=21,11 / fast_pskip=1 / chroma_qp_offset=-3 / threads=11 / lookahead_threads=1 / sliced_threads=0 / nr=0 / decimate=1 / interlaced=0 / bluray_compat=0 / constrained_intra=0 / bframes=10 / b_pyramid=1 / b_adapt=1 / b_bias=10 / direct=1 / weightb=1 / open_gop=0 / weightp=1 / keyint=240 / keyint_min=24 / scenecut=40 / intra_refresh=0 / rc_lookahead=40 / rc=abr / mbtree=1 / bitrate=2600 / ratetol=1.0 / qcomp=0.60 / qpmin=0 / qpmax=69 / qpstep=4 / vbv_maxrate=3000 / vbv_bufsize=3500 / nal_hrd=none / filler=0 / ip_ratio=1.40 / aq=1:1.00
Язык : English
Default : Да
Forced : Нет
Цветовой диапазон : Limited
Основные цвета : BT.709
Характеристики трансфера : BT.709
Коэффициенты матрицы : BT.709

Аудио #1
Идентификатор : 2
Формат : AC-3
Формат/Информация : Audio Coding 3
Коммерческое название : Dolby Digital
Идентификатор кодека : A_AC3
Продолжительность : 1 ч. 45 м.
Вид битрейта : Постоянный
Битрейт : 384 Кбит/сек
Каналы : 2 канала
Channel layout : L R
Частота : 48,0 КГц
Частота кадров : 31,250 кадров/сек (1536 SPF)
Битовая глубина : 16 бит
Метод сжатия : С потерями
Размер потока : 289 Мбайт (10%)
Заголовок : DUB
Язык : Russian
ServiceKind/String : Complete Main
Default : Да
Forced : Нет

Аудио #2
Идентификатор : 3
Формат : AC-3
Формат/Информация : Audio Coding 3
Коммерческое название : Dolby Digital
Идентификатор кодека : A_AC3
Продолжительность : 1 ч. 45 м.
Вид битрейта : Постоянный
Битрейт : 448 Кбит/сек
Каналы : 6 каналов
Channel layout : L R C LFE Ls Rs
Частота : 48,0 КГц
Частота кадров : 31,250 кадров/сек (1536 SPF)
Битовая глубина : 16 бит
Метод сжатия : С потерями
Размер потока : 337 Мбайт (12%)
Заголовок : DUB
Язык : Russian
ServiceKind/String : Complete Main
Default : Нет
Forced : Нет

Аудио #3
Идентификатор : 4
Формат : AC-3
Формат/Информация : Audio Coding 3
Коммерческое название : Dolby Digital
Идентификатор кодека : A_AC3
Продолжительность : 1 ч. 45 м.
Вид битрейта : Постоянный
Битрейт : 448 Кбит/сек
Каналы : 6 каналов
Channel layout : L R C LFE Ls Rs
Частота : 48,0 КГц
Частота кадров : 31,250 кадров/сек (1536 SPF)
Битовая глубина : 16 бит
Метод сжатия : С потерями
Размер потока : 337 Мбайт (12%)
Язык : English
ServiceKind/String : Complete Main
Default : Нет
Forced : Нет

Текст
Идентификатор : 5
Формат : UTF-8
Идентификатор кодека : S_TEXT/UTF8
Идентификатор кодека/Информация : UTF-8 Plain Text
Продолжительность : 1 ч. 38 м.
Битрейт : 45 бит/сек
ElementCount : 1236
Размер потока : 33,0 Кбайт (0%)
Язык : English
Default : Да
Forced : Нет

Меню
00:00:00.000 : :00:00:00.000
00:02:54.591 : :00:02:54.591
00:10:45.270 : :00:10:45.270
00:16:41.042 : :00:16:41.042
00:21:56.232 : :00:21:56.232
00:27:54.673 : :00:27:54.673
00:32:08.385 : :00:32:08.385
00:35:41.181 : :00:35:41.181
00:42:17.034 : :00:42:17.034
00:47:41.442 : :00:47:41.442
00:51:44.727 : :00:51:44.727
00:57:15.849 : :00:57:15.849
01:00:54.025 : :01:00:54.025
01:08:16.216 : :01:08:16.217
01:12:32.765 : :01:12:32.765
01:18:37.046 : :01:18:37.046
01:25:25.746 : :01:25:25.746
01:30:34.471 : :01:30:34.471
01:35:16.294 : :01:35:16.294
01:41:23.202 : :01:41:23.202







Релиз от:



   Похожие торренты   Торрент   Размер 
В этой теме нет новых непрочитанных сообщений. Книга Генри / The Book of Henry (Колин Треворроу) [2017, триллер, драма, криминал, BDRip] DUB

303 | 4

1.46 ГБ

В этой теме нет новых непрочитанных сообщений. Книга Генри / The Book of Henry (Колин Треворроу) [2017, триллер, драма, криминал, BDRip-AVC] DUB / Драмы

16 | 0

1.27 ГБ

В этой теме нет новых непрочитанных сообщений. Книга Генри / The Book of Henry (Колин Треворроу) [2017, триллер, драма, криминал, BDRip-AVC] DUB / Драмы

7 | 0

2 ГБ

В этой теме нет новых непрочитанных сообщений. Книга Генри / The Book of Henry (Колин Треворроу) [2017, триллер, драма, криминал, BDRip] DUB / Драмы

10 | 0

746.29 МБ

В этой теме нет новых непрочитанных сообщений. Книга Генри / The Book of Henry (Колин Треворроу / Colin Trevorrow) [2017, триллер, драма, криминал, WEBDLRip] DVO

71 | 0

1.37 ГБ

В этой теме нет новых непрочитанных сообщений. Книга Генри / The Book of Henry (2017) HDRip | L

93 | 5

1.46 ГБ

В этой теме нет новых непрочитанных сообщений. Книга Генри / The Book of Henry (2017) HDRip | L

18 | 2

745.38 МБ




Вы не можете начинать темы
Вы не можете отвечать на сообщения
Вы не можете редактировать свои сообщения
Вы не можете удалять свои сообщения
Вы не можете добавлять вложения

Перейти:  
 Вход
ppkBB3cker v.2 © 2008-2014 @ PPK
[ Time : 0.027s | 15 Queries | GZIP : Off ]

cron