img image001 image001 image001 image001 image001 image001 image001 image001 image001 image001 image001 image001 image001 image001 image001 image001

Planets Sun Sun Sun
Статистика раздачи
Автор: Снежана | Размер: 1.46 ГБ | Добавлен: 25 сен 2018
Раздают: 5    Качают: 0
Скачать торрент
Скачать торрент
Описание торрента

СообщениеДобавлено: 25 сен 2018 

Мара. Пожиратель снов / Mara


Перевод: Профессиональный (многоголосый закадровый) HDRezka Studio, субтитры: отсутствуют
Формат: WEBDLRip-AVC, MKV, H.264, AC3
Страна: Великобритания, США
Режиссер: Клайв Тонг
Жанр: ужасы, триллер, криминал
Продолжительность: 01:39:03
Год выпуска: 2018
В ролях: Ольга Куриленко, Крэйг Конуэй, Хавьер Ботет, Рози Феллнер, Лэнс Э. Николс, Маккензи Имсэнд, Тед Джонсон, Митч Икинс, Мелисса Болона, Маркус В. Уэзерсби и др.

Описание: Кейт Фуллер приписана к расследованию убийства мужчины, которого, как считает полиция, задушила во сне собственная жена. В качестве свидетеля проходит восьмилетняя дочь убитого, Софи. Все дальше углубляясь в это дело, Кейт узнает о существовании древнего демона, убивающего своих жертв во сне. Она испытывает те же чудовищные симптомы и кошмары, поэтому сон становится для неё опасным.



Видео: 1024x432 (2,40:1), 23.976 fps, AVC MPEG-4 (H.264), ~1878 kbps, 0.177 bit/pixel
Аудио: 48 kHz, AC3 Dolby Digital, 2/0 (L,R) ch, ~192 kbps

General
Unique ID : 311785777898656429920562661747126341531 (0xEA8FC1AFCF8CDD0D98533CC0FFAA8F9B)
Format : Matroska
Format version : Version 2
File size : 1.46 GiB
Duration : 1h 39mn
Overall bit rate : 2 112 Kbps
Writing application : Lavf55.12.100
Writing library : Lavf55.12.100 / Lavf55.12.100

Video
ID : 2
Format : AVC
Format/Info : Advanced Video Codec
Format profile :
Format settings, CABAC : Yes
Format settings, ReFrames : 2 frames
Codec ID : V_MPEG4/ISO/AVC
Duration : 1h 39mn
Bit rate : 1 878 Kbps
Width : 1 024 pixels
Height : 432 pixels
Display aspect ratio : 2.40:1
Frame rate mode : Constant
Frame rate : 23.976 (24000/1001) fps
Color space : YUV
Chroma subsampling : 4:2:0
Bit depth : 8 bits
Scan type : Progressive
Bits/(Pixel*Frame) : 0.177
Stream size : 1.30 GiB (89%)
Language : English
Default : Yes
Forced : No
Statistics Tags Issue : mkvmerge v23.0.0 ('The Bride Said No') 64-bit 2018-09-17 16:15:39 / Lavf55.12.100
FromStats_BitRate : 4029638
FromStats_Duration : 01:39:03.855000000
FromStats_FrameCount : 142511
FromStats_StreamSize : 2993948690

Audio
ID : 1
Format : AC-3
Format/Info : Audio Coding 3
Mode extension : CM (complete main)
Format settings, Endianness : Big
Codec ID : A_AC3
Duration : 1h 39mn
Bit rate mode : Constant
Bit rate : 192 Kbps
Channel(s) : 2 channels
Channel positions : Front: L R
Sampling rate : 48.0 KHz
Frame rate : 31.250 fps (1536 spf)
Bit depth : 32 bits
Compression mode : Lossy
Stream size : 136 MiB (9%)
Title : MVO | HDRezka Studio
Language : Russian
Default : Yes
Forced : No
Statistics Tags Issue : mkvmerge v23.0.0 ('The Bride Said No') 64-bit 2018-09-17 16:15:39 / Lavf55.12.100
FromStats_BitRate : 192000
FromStats_Duration : 01:39:04.288000000
FromStats_FrameCount : 185759
FromStats_StreamSize : 142662912















   Похожие торренты   Торрент   Размер 
В этой теме нет новых непрочитанных сообщений. Мара. Пожиратель снов / Mara (Клайв Тонг) [2018, ужасы, триллер, криминал, WEBDLRip-AVC] VO

29 | 0

2.3 ГБ

В этой теме нет новых непрочитанных сообщений. Мара. Пожиратель снов / Mara (Клайв Тонг) [2018, ужасы, триллер, криминал, WEB-DLRip] MVO

55 | 1

1.46 ГБ

В этой теме нет новых непрочитанных сообщений. Мара [Трейлер] / Mara (Клайв Тонг) [2018, ужасы, триллер, криминал, WEBRip] DUB

20 | 0

32.71 МБ

В этой теме нет новых непрочитанных сообщений. Убийство Джоан / Killing Joan (Тодд Барту) [2018, драма, триллер, криминал, ужасы, боевик, WEBDLRip] MVO

9 | 1

1.46 ГБ

В этой теме нет новых непрочитанных сообщений. Фобия / Haunted (Карл Кристиан Робе) [2017, криминал, триллер, ужасы, драма, WEBDLRip] DUB

13 | 0

1.28 ГБ

В этой теме нет новых непрочитанных сообщений. Мара / Mara (2012) HDRip | L2

15 | 7

1.37 ГБ

В этой теме нет новых непрочитанных сообщений. Жизнь подонков / Отморозки / Lowlife (Райан Праус) [2017, ужасы, триллер, драма, комедия, криминал, WEBDLRip] MVO

6 | 0

1.37 ГБ




Вы не можете начинать темы
Вы не можете отвечать на сообщения
Вы не можете редактировать свои сообщения
Вы не можете удалять свои сообщения
Вы не можете добавлять вложения

Перейти:  
 Вход
ppkBB3cker v.2 © 2008-2014 @ PPK
[ Time : 0.032s | 16 Queries | GZIP : Off ]

cron