img image001 image001 image001 image001 image001 image001 image001 image001 image001 image001 image001 image001 image001 image001 image001 image001

Planets Sun Sun Sun
Статистика раздачи
Автор: Снежана | Размер: 10.26 ГБ | Добавлен: 15 окт 2018
Раздают: 17    Качают: 12
Скачать торрент
Скачать торрент
Описание торрента

СообщениеДобавлено: 15 окт 2018 

Московская борзая (2 сезон 1-16 серии из 16)

Перевод: Не требуется, cубтитры: отсутствуют
Формат: WEB-DLRip-AVC, MKV, H.264, AC3
Страна: Россия
Режиссер: Роман Просвирнин
Жанр: криминал, детектив, мелодрама
Всего серий: 16
Продолжительность: 16 х ~ 00:45:00
Год выпуска: 2018

В ролях: Екатерина Климова, Ольга Красько, Олег Алмазов, Александр Ратников, Николай Лунин (II), Сергей Мухин, Евгений Пронин, Сергей Шеховцов, Михаил Владимиров, Татьяна Кузнецова, Анастасия Савосина, Анастасия Балякина, Надежда Бахтина, Екатерина Сёмина, Анна Телицына, Александр Стефанцов, Анатолий Бледный, Игорь Марков (II), Семён Шемес, Виктор Бабич, Арсений Гусев, Егор Губарев, Яна Василевская, Григорий Шевчук, Валерий Маслов, Виктор Рябов, Наталья Лукеичева, Маргарита Бекале, Виктор Пипа, Ирина Ефремова (II), Денис Дружинин, Пётр Королёв (II), Николай Шатохин, Алдар Когаев, Эдуард Федашко, Роман Калькаев, Александр Туманов, Василиса Савкина, Кирилл Ермичёв, Игорь Мещерин, Денис Урюпин

Описание: Новый сезон по-настоящему удивит телезрителей, ведь на этот раз события развернутся... в подсознании главной героини! Распутывая очередное преступление, Борзова сама становится жертвой. По сценарию, среди груды тел следователи находят полуживую Алевтину. Чтобы распутать головоломку и разобраться в трагедии, сыщики решаются на небывалый эксперимент. Интрига будет строиться вокруг нового персонажа в исполнении актрисы Екатерины Климовой. Именно её героине предстоит внедриться в голову майора Борзовой.

Рейтинг и доп. информация:


Видео: 1024x576 (16:9), 25 fps, AVC MPEG-4 (x264), ~ 1600 kbps , 0.109 bit/pixel
Аудио: 44 kHz, AC3, 2/0 (L,R) ch, ~192.00 kbps avg
Общее
Уникальный идентификатор : 186918164978898768836872275151947245413 (0x8C9F210D3D755E6DBE2419B5A6C72765)
Полное имя : C:\Московская борзая.s02.(2018).WEB-DLRip.AVC.Files-x\01.Московская борзая.s02.(2018).WEB-DLRip.(AVC).by.Серый1779.Files-x.mkv
Формат : Matroska
Версия формата : Version 2
Размер файла : 654 Мбайт
Продолжительность : 51 м. 1 с.
Общий поток : 1793 Кбит/сек
Дата кодирования : UTC 2018-10-01 20:44:18
Программа кодирования : mkvmerge v7.8.0 ('River Man') 32bit built on Apr 3 2015 12:11:22
Библиотека кодирования : libebml v1.3.1 + libmatroska v1.4.2

Видео
Идентификатор : 1
Формат : AVC
Формат/Информация : Advanced Video Codec
Профиль формата :
Настройки формата : CABAC / 9 Ref Frames
Параметр CABAC формата : Да
Параметр RefFrames формата : 9 кадров
Идентификатор кодека : V_MPEG4/ISO/AVC
Продолжительность : 51 м. 1 с.
Битрейт : 1600 Кбит/сек
Ширина : 1024 пикселя
Высота : 576 пикселей
Соотношение сторон : 16:9
Режим частоты кадров : Постоянный
Частота кадров : 25,000 кадров/сек
Цветовое пространство : YUV
Субдискретизация насыщенности : 4:2:0
Битовая глубина : 8 бит
Тип развёртки : Прогрессивная
Бит/(Пиксели*Кадры) : 0.109
Размер потока : 571 Мбайт (87%)
Библиотека кодирования : x264 core 146 r2538 121396c
Настройки программы : cabac=1 / ref=9 / deblock=1:-2:-1 / analyse=0x3:0x133 / me=umh / subme=9 / psy=1 / psy_rd=1.00:0.15 / mixed_ref=1 / me_range=32 / chroma_me=1 / trellis=2 / 8x8dct=1 / cqm=0 / deadzone=21,11 / fast_pskip=0 / chroma_qp_offset=-3 / threads=18 / lookahead_threads=3 / sliced_threads=0 / nr=0 / decimate=1 / interlaced=0 / bluray_compat=0 / constrained_intra=0 / bframes=9 / b_pyramid=2 / b_adapt=2 / b_bias=0 / direct=1 / weightb=1 / open_gop=0 / weightp=2 / keyint=250 / keyint_min=25 / scenecut=40 / intra_refresh=0 / rc=2pass / mbtree=0 / bitrate=1600 / ratetol=1.0 / qcomp=0.60 / qpmin=0 / qpmax=69 / qpstep=4 / cplxblur=20.0 / qblur=0.5 / ip_ratio=1.40 / pb_ratio=1.30 / aq=2:1.00
Default : Да
Forced : Нет
Цветовой диапазон : Limited
Основные цвета : BT.709
Характеристики трансфера : BT.709
Коэффициенты матрицы : BT.709

Аудио
Идентификатор : 2
Формат : AC-3
Формат/Информация : Audio Coding 3
Коммерческое название : Dolby Digital
Идентификатор кодека : A_AC3
Продолжительность : 51 м. 1 с.
Вид битрейта : Постоянный
Битрейт : 192 Кбит/сек
Каналы : 2 канала
Channel layout : L R
Частота : 44,1 КГц
Частота кадров : 28,711 кадров/сек (1536 SPF)
Битовая глубина : 16 бит
Метод сжатия : С потерями
Размер потока : 70,1 Мбайт (11%)
ServiceKind/String : Complete Main
Default : Да
Forced : Нет








   Похожие торренты   Торрент   Размер 
В этой теме нет новых непрочитанных сообщений. Московская борзая (2 сезон 1-10 серии из 16) (Роман Просвирнин) [2018, криминал, детектив, мелодрама, WEB-DLRip-AVC]

17 | 9

6.4 ГБ

В этой теме нет новых непрочитанных сообщений. Московская борзая (2 сезон 1-10 серии из 16) (Роман Просвирнин) [2018, криминал, детектив, мелодрама, WEB-DLRip]

5 | 3

6.08 ГБ

В этой теме нет новых непрочитанных сообщений. Московская борзая (2 сезон 1-8 серии из 16) (Роман Просвирнин) [2018, криминал, детектив, мелодрама, WEB-DLRip]

42 | 9

4.87 ГБ

В этой теме нет новых непрочитанных сообщений. Московская борзая (2 сезон 1-8 серии из 16) (Роман Просвирнин) [2018, криминал, детектив, мелодрама, WEB-DLRip-AVC]

11 | 4

5.13 ГБ

В этой теме нет новых непрочитанных сообщений. Московская борзая (2 сезон 1-14 серии из 16) (Роман Просвирнин) [2018, криминал, детектив, мелодрама, WEB-DLRip]

1 | 0

8.5 ГБ

В этой теме нет новых непрочитанных сообщений. Московская борзая (2 сезон 1-4 серии из 16) (Роман Просвирнин) [2018, криминал, детектив, мелодрама, WEB-DLRip-AVC]

0 | 0

2.57 ГБ

В этой теме нет новых непрочитанных сообщений. Московская борзая (2 сезон 1-4 серии из 16) (Роман Просвирнин) [2018, криминал, детектив, мелодрама, WEB-DLRip]

3 | 2

2.44 ГБ




Вы не можете начинать темы
Вы не можете отвечать на сообщения
Вы не можете редактировать свои сообщения
Вы не можете удалять свои сообщения
Вы не можете добавлять вложения

Перейти:  
 Вход
ppkBB3cker v.2 © 2008-2014 @ PPK
[ Time : 0.032s | 16 Queries | GZIP : Off ]

cron