img image001 image001 image001 image001 image001 image001 image001 image001 image001 image001 image001 image001 image001 image001 image001 image001

Planets Sun Sun Sun
Статистика раздачи
Автор: Снежана | Размер: 14.52 ГБ | Добавлен: 15 окт 2018
Раздают: 34    Качают: 8
Скачать торрент
Скачать торрент
Описание торрента

СообщениеДобавлено: 15 окт 2018 

Операция «Сатана» (1-8 серии из 8)

Перевод: Не требуется, cубтитры: отсутствуют
Формат: HDTVRip 1080p, MKV, H.264, AC3
Страна: Россия
Режиссер: Юрий Мороз
Жанр: детектив, криминал
Всего серий: 8
Продолжительность: 8 х ~ 00:50:00
Год выпуска: 2018

В ролях: Андрей Смоляков, Марина Александрова, Виктория Исакова, Игорь Гордин, Владимир Ильин, Сергей Колтаков, Яна Сексте, Александра Ребенок, Александр Домогаров, Сергей Угрюмов, Даниэла Стоянович, Юрий Чурсин, Софья Евстигнеева, Алексей Бардуков, Александр Голубев, Вадим Андреев, Юрий Тарасов, Луиза Мосендз, Лариса Удовиченко, Александр Дробитько, Владимир Юматов, Филипп Гуревич, Михаил Филиппов, Денис Бургазлиев, Мартин Джон Кук, Олег Алмазов, Елизавета Зарубина, Светлана Колпакова, Олег Ребров, Петр Томашевский, Иван Ивашкин, Василиса Измайлова, Дмитрий Куличков, Вячеслав Крикунов

Описание: 5-й сезон о легендарном майоре Черкасове. 1975 год – холодная война между СССР и США, гонка вооружений. Напряженно работают физики-ядерщики. В Советском Союзе становится очевидной утечка секретной информации о разработке ракеты «Сатана». Казалось бы, как может быть связан майор милиции с разведкой спецслужб? Однако именно он, Иван Петрович, уволенный из МУРа, трудящийся обычным участковым, оказывает неоценимую помощь КГБ в поимке американского шпиона.

Рейтинг и доп. информация:


Видео: 1920x1080 (16:9), 25 fps, AVC MPEG-4 (x264), High@L4 ~ 5100 kbps , 0.098 bit/pixel
Аудио: 48 kHz, AC3, 2/0 (L,R) ch, ~192.00 kbps avg
Общее
Уникальный идентификатор : 157151847003593966551421472835049270859 (0x763A58448CF08B43B14EF18B3892AE4B)
Полное имя : C:\Операция «Сатана».2018.HDTVRip (1080p)\01.Операция «Сатана».2018.HDTVRip (1080p).mkv
Формат : Matroska
Версия формата : Version 4
Размер файла : 1,80 Гбайт
Продолжительность : 48 м. 45 с.
Общий поток : 5295 Кбит/сек
Программа кодирования : XviD4PSP 7.0.457 DAILY
Библиотека кодирования : Lavf57.71.100
ErrorDetectionType : Per level 1
CRC_Error_Pos : 426145
ENCODING_INFO : MATROSKA,WEBM > MKV / H264 > X264 VBR-2P 5100kbps HQ / MP2 > AC3 CBR 192kbps

Видео
Идентификатор : 1
Формат : AVC
Формат/Информация : Advanced Video Codec
Профиль формата : High@L4
Настройки формата : CABAC / 4 Ref Frames
Параметр CABAC формата : Да
Параметр RefFrames формата : 4 кадра
Идентификатор кодека : V_MPEG4/ISO/AVC
Продолжительность : 48 м. 45 с.
Битрейт : 5100 Кбит/сек
Ширина : 1920 пикселей
Высота : 1080 пикселей
Соотношение сторон : 16:9
Режим частоты кадров : Постоянный
Частота кадров : 25,000 кадров/сек
Цветовое пространство : YUV
Субдискретизация насыщенности : 4:2:0
Битовая глубина : 8 бит
Тип развёртки : MBAFF
Метод сохранения типа развёртки : Чередующиеся поля
Порядок развёртки : Верхнее поле первое
Бит/(Пиксели*Кадры) : 0.098
Размер потока : 1,70 Гбайт (94%)
Библиотека кодирования : x264 core 155 r2901M 7d0ff22
Настройки программы : cabac=1 / ref=3 / deblock=1:-3:-3 / analyse=0x3:0x113 / me=hex / subme=7 / psy=1 / psy_rd=1.00:0.20 / mixed_ref=1 / me_range=16 / chroma_me=1 / trellis=1 / 8x8dct=1 / cqm=0 / deadzone=21,11 / fast_pskip=1 / chroma_qp_offset=-3 / threads=5 / lookahead_threads=1 / sliced_threads=0 / nr=0 / decimate=1 / interlaced=tff / bluray_compat=0 / constrained_intra=0 / bframes=3 / b_pyramid=2 / b_adapt=2 / b_bias=0 / direct=3 / weightb=1 / open_gop=0 / weightp=0 / keyint=250 / keyint_min=25 / scenecut=40 / intra_refresh=0 / rc_lookahead=40 / rc=2pass / mbtree=1 / bitrate=5100 / ratetol=1.0 / qcomp=0.60 / qpmin=0 / qpmax=69 / qpstep=4 / cplxblur=20.0 / qblur=0.5 / ip_ratio=1.40 / aq=1:1.00
Default : Да
Forced : Нет
Цветовой диапазон : Limited
Основные цвета : BT.709
Характеристики трансфера : BT.709
Коэффициенты матрицы : BT.709

Аудио
Идентификатор : 2
Формат : AC-3
Формат/Информация : Audio Coding 3
Коммерческое название : Dolby Digital
Идентификатор кодека : A_AC3
Продолжительность : 48 м. 45 с.
Вид битрейта : Постоянный
Битрейт : 192 Кбит/сек
Каналы : 2 канала
Channel layout : L R
Частота : 48,0 КГц
Частота кадров : 31,250 кадров/сек (1536 SPF)
Битовая глубина : 16 бит
Метод сжатия : С потерями
Размер потока : 67,0 Мбайт (4%)
Язык : Russian
ServiceKind/String : Complete Main
Default : Да
Forced : Нет

Предыдущие сезоны: «Мосгаз» (2012), «Палач» (2014), «Паук» (2015), «Шакал» (2016).








   Похожие торренты   Торрент   Размер 
В этой теме нет новых непрочитанных сообщений. Операция «Сатана» (1-8 серии из 8) (Юрий Мороз) [2018, детектив, криминал, HDTVRip-AVC]

21 | 3

6.01 ГБ

В этой теме нет новых непрочитанных сообщений. Операция «Сатана» (1- серии из 8) (Юрий Мороз) [2018, детектив, криминал, HDTVRip-AVC]

6 | 1

764.95 МБ

В этой теме нет новых непрочитанных сообщений. Операция «Сатана» (1-3 серии из 8) (Юрий Мороз) [2018, детектив, криминал, HDTVRip]

0 | 0

2.04 ГБ

В этой теме нет новых непрочитанных сообщений. Операция «Сатана» (1- серии из 8) (Юрий Мороз) [2018, детектив, криминал, HDTVRip]

49 | 1

686.97 МБ

В этой теме нет новых непрочитанных сообщений. Операция «Сатана» (1-2 серии из 8) (Юрий Мороз) [2018, детектив, криминал, HDTVRip]

0 | 0

1.33 ГБ

В этой теме нет новых непрочитанных сообщений. Операция «Сатана» (1-6 серии из 8) (Юрий Мороз) [2018, детектив, криминал, HDTVRip-AVC]

11 | 3

4.52 ГБ

В этой теме нет новых непрочитанных сообщений. Операция «Сатана» (1-5 серии из 8) (Юрий Мороз) [2018, детектив, криминал, HDTVRip-AVC]

3 | 4

3.77 ГБ




Вы не можете начинать темы
Вы не можете отвечать на сообщения
Вы не можете редактировать свои сообщения
Вы не можете удалять свои сообщения
Вы не можете добавлять вложения

Перейти:  
 Вход
ppkBB3cker v.2 © 2008-2014 @ PPK
[ Time : 0.023s | 15 Queries | GZIP : Off ]

cron