img image001 image001 image001 image001 image001 image001 image001 image001 image001 image001 image001 image001 image001 image001 image001 image001

Planets Sun Sun Sun
Статистика раздачи
Автор: Снежана | Размер: 1.51 ГБ | Добавлен: 15 окт 2018
Раздают: 6    Качают: 3
Скачать торрент
Скачать торрент
Описание торрента

СообщениеДобавлено: 15 окт 2018 

Белоснежка и семь гномов / Snow White and the seven dwarfs

Перевод: Профессиональный (полное дублирование)
Субтитры: Русские, английские
Формат: BDRip-AVC, MKV, H.264, AC3
Страна: США
Режиссер: Уильям Коттрелл, Дэвид Хэнд, Уилфред Джексон
Жанр: мультфильм, мюзикл, фэнтези, мелодрама, семейный
Продолжительность: 01:23:11
Год выпуска: 1937

В ролях: Рой Этвелл, Стюарт Бьюкэнэн, Адриана Каселотти, Эдди Коллинз, Вэнс Колвиг мл., Мэрион Дарлингтон, Билли Гилберт, Отис Хэрлан, Люсиль Ла Верн, Джеймс МакДональд

Описание: Экранизация знаменитой немецкой сказки братьев Гримм о Белоснежке, жившей в замке со злой мачехой-королевой, которая очень гордилась своей красотой. Узнав от волшебного зеркальца, что Белоснежка стала самой прекрасной девушкой на свете, завистница решила погубить прелестную падчерицу. Но бедная девушка не погибла в лесу, а наоборот, встретила там настоящих друзей — забавных семерых гномов: Профессора, Ворчуна, Весельчака, Скромника, Чихоню, Соню и Молчуна…



Видео: 776x576p (4:3), 23.976 fps, AVC MPEG-4 (H.264), ~1825 kbps, 0.170 bit/pixel
Аудио #1: Русский: 48 kHz, AC3 Dolby Digital, 6 ch, ~384 kbps [Профессиональный (полное дублирование)]
Аудио #2: Английский: 48 kHz, AC3 Dolby Digital, 6 ch, ~384 kbps [Оригинал]

Формат : Matroska
Версия формата : Version 4 / Version 2
Размер файла : 1,51 Гбайт
Продолжительность : 1 ч. 23 м.
Общий поток : 2593 Кбит/сек
Название фильма : Белоснежка и семь гномов | Snow White and the Seven Dwarfs [1937] -=BDRip (AVC) by 0ptimus=-
Дата кодирования : UTC 2013-09-14 11:04:28
Программа кодирования : mkvmerge v6.1.0 ('Old Devil') built on Mar 2 2013 14:32:37
Библиотека кодирования : libebml v1.3.0 + libmatroska v1.4.0

Видео
Идентификатор : 1
Формат : AVC
Формат/Информация : Advanced Video Codec
Профиль формата :
Параметр CABAC формата : Да
Параметр ReFrames формата : 8 кадров
Идентификатор кодека : V_MPEG4/ISO/AVC
Продолжительность : 1 ч. 23 м.
Битрейт : 1825 Кбит/сек
Ширина : 776 пикселей
Высота : 576 пикселей
Соотношение сторон : 4:3
Частота кадров : 23,976 кадра/сек
Цветовое пространство : YUV
Субдискретизация насыщенности : 4:2:0
Битовая глубина : 8 бит
Тип развёртки : Прогрессивная
Бит/(Пиксели*Кадры) : 0.170
Размер потока : 1,03 Гбайт (68%)
Заголовок : Rip by 0ptimus
Библиотека кодирования : x264 core 92 r1510 33d382a
Настройки программы : cabac=1 / ref=8 / deblock=1:-3:-3 / analyse=0x3:0x133 / me=umh / subme=9 / psy=1 / psy_rd=1.00:0.20 / mixed_ref=1 / me_range=32 / chroma_me=1 / trellis=1 / 8x8dct=1 / cqm=0 / deadzone=21,11 / fast_pskip=0 / chroma_qp_offset=2 / threads=3 / sliced_threads=0 / nr=0 / decimate=1 / interlaced=0 / constrained_intra=0 / bframes=8 / b_pyramid=2 / b_adapt=2 / b_bias=0 / direct=3 / wpredb=1 / wpredp=2 / keyint=250 / keyint_min=25 / scenecut=40 / intra_refresh=0 / rc_lookahead=40 / rc=2pass / mbtree=1 / bitrate=1825 / ratetol=1.0 / qcomp=0.60 / qpmin=10 / qpmax=51 / qpstep=4 / cplxblur=20.0 / qblur=0.5 / ip_ratio=1.40 / aq=1:1.00
Язык : English

Аудио #1
Идентификатор : 2
Формат : AC-3
Формат/Информация : Audio Coding 3
Расширение режима : CM (complete main)
Идентификатор кодека : A_AC3
Продолжительность : 1 ч. 23 м.
Вид битрейта : Постоянный
Битрейт : 384 Кбит/сек
Каналы : 6 каналов
Расположение каналов : Front: L C R, Side: L R, LFE
Частота : 48,0 КГц
Битовая глубина : 16 бит
Метод сжатия : С потерями
Размер потока : 229 Мбайт (15%)
Заголовок : Дублированный [Нева] AC3 5.1 @ 384 kbps
Язык : Russian

Аудио #2
Идентификатор : 3
Формат : AC-3
Формат/Информация : Audio Coding 3
Расширение режима : CM (complete main)
Идентификатор кодека : A_AC3
Продолжительность : 1 ч. 23 м.
Вид битрейта : Постоянный
Битрейт : 384 Кбит/сек
Каналы : 6 каналов
Расположение каналов : Front: L C R, Side: L R, LFE
Частота : 48,0 КГц
Битовая глубина : 16 бит
Метод сжатия : С потерями
Размер потока : 229 Мбайт (15%)
Заголовок : AC3 5.1 @ 384 kbps
Язык : English

Текст #1
Идентификатор : 4
Формат : UTF-8
Идентификатор кодека : S_TEXT/UTF8
Идентификатор кодека/Информация : UTF-8 Plain Text
Язык : Russian

Текст #2
Идентификатор : 5
Формат : UTF-8
Идентификатор кодека : S_TEXT/UTF8
Идентификатор кодека/Информация : UTF-8 Plain Text
Язык : English

Меню
00:00:00.000 : Opening Credits
00:01:22.707 : Once Upon a Time...
00:02:11.965 : The Magic Mirror
00:03:35.506 : "I'm Wishing"
00:05:25.825 : The Prince ("One Song")
00:07:00.044 : The Queen's Evil Plan
00:09:11.425 : Flight Through the Forest
00:11:34.735 : "with a Smile and a Song"
00:14:56.979 : The Dwarf's Cottage
00:17:38.348 : "Whistle While You Work"
00:21:25.284 : "Heigh-Ho"
00:24:09.156 : Snow White Explores Upstairs
00:25:29.819 : The Dwarfs Arrive Home
00:34:55.426 : Snow White Wakes Up
00:42:47.398 : "Bluddle-Uddle-Um-Dum"
00:47:49.408 : Deceived
00:49:15.827 : The Queen Prepares a Disgues
00:52:02.118 : "the Dwarf's Yodel Song"
00:56:49.447 : "Some Day My Prince Will Come"
00:58:53.321 : Settling Down for the Night
01:02:38.796 : The Poison Apple
01:05:40.937 : The Next Morning
01:08:24.558 : The Old Peddler Woman
01:11:41.297 : The Animals Warn the Dwarfs
01:14:08.902 : The Apple
01:17:42.991 : A Bedside Vigil
01:20:27.614 : Love's First Kiss












   Похожие торренты   Торрент   Размер 
В этой теме нет новых непрочитанных сообщений. Белоснежка и семь гномов / Snow White and the seven dwarfs (Уильям Коттрелл, Дэвид Хэнд, Уилфред Джексон) [1937, мультфильм, мюзикл, фэнтези, мелодрама, семейный, BDRip] AVO / Walt Disney

1 | 0

1.45 ГБ

В этой теме нет новых непрочитанных сообщений. Белоснежка и семь гномов / Snow White and the seven dwarfs (Уильям Коттрелл, Дэвид Хэнд, Уилфред Джексон) [1937, мультфильм, мюзикл, фэнтези, мелодрама, семейный, BDRip 720p] DUB / Мультфильмы (HD/BD Video)

2 | 0

4.27 ГБ

В этой теме нет новых непрочитанных сообщений. Золушка / Cinderella (Клайд Джероними, Уилфред Джексон, Хэмильтон Ласки) [1950, мультфильм, мюзикл, фэнтези, мелодрама, семейный, BDRip] MVO / Walt Disney

3 | 0

1.08 ГБ

В этой теме нет новых непрочитанных сообщений. Белоснежка и семь гномов / Snow White and the Seven Dwarfs (1937) BDRip-AVC от 0ptimus | D

В этой теме нет новых непрочитанных сообщений. Белоснежка и семь гномов / Snow White and the Seven Dwarfs (1937) BDRip от HQ-ViDEO | D

872 | 38

1.46 ГБ

В этой теме нет новых непрочитанных сообщений. Белоснежка и семь гномов / Snow White and the Seven Dwarfs (1937) BDRip 720p | 60 fps

119 | 16

4.06 ГБ

В этой теме нет новых непрочитанных сообщений. Белоснежка и семь гномов / Snow White and the Seven Dwarfs (1937) BDRip 1080p | 60 fps

83 | 17

6.07 ГБ




Вы не можете начинать темы
Вы не можете отвечать на сообщения
Вы не можете редактировать свои сообщения
Вы не можете удалять свои сообщения
Вы не можете добавлять вложения

Перейти:  
 Вход
ppkBB3cker v.2 © 2008-2014 @ PPK
[ Time : 0.026s | 16 Queries | GZIP : Off ]

cron