img image001 image001 image001 image001 image001 image001 image001 image001 image001 image001 image001 image001 image001 image001 image001 image001

Planets Sun Sun Sun
Статистика раздачи
Автор: Снежана | Размер: 3.23 ГБ | Добавлен: 15 окт 2018
Раздают: 25    Качают: 6
Скачать торрент
Скачать торрент
Описание торрента

СообщениеДобавлено: 15 окт 2018 

22 июля / 22 July

Слоган: «Правдивая история одного дня, начавшегося как и любой другой…»


Перевод: Профессиональный (полное дублирование) [Невафильм]
Субтитры: русские, английские, немецкие, французские [вшитые отключаемые]
Формат: WEBDLRip-AVC, MKV, H.264, AC3
Страна: Норвегия, Исландия, США
Режиссер: Пол Гринграсс
Жанр: триллер, драма, криминал, биография
Продолжительность: 02:24:00
Год выпуска: 2018
В ролях: Торбьорн Харр, Андерс Даниелсен Лье, Йон Ёигарден, Ларс Аренц-Хансен, Йоаким Скарли, Ёйстейн Мартинсен, Аннеке фон Дер Липпе, Миккель Братт Сильсет

Описание: 22 июля 2011 года — день, в который был совершен самый кровавый, беспощадный и многочисленный по числу жертв теракт в истории Норвегии. Террорист — Андерс Брейвик взорвал бомбу в Осло и расстрелял 77 молодых людей в лагере на острове Утейя. Хронология тех страшных событий представлена с трех сторон — глазами пострадавших от нападения, политиков, оказавшихся беспомощными в экстремальной ситуации и юристов, которые вели дело Брейвика в суде.


Видео: 1024x550 (16:9), 23.976 fps, AVC MPEG-4 (H.264), ~2376 kbps, 0.176 bit/pixel
Аудио #1: Русский: 48 kHz, AC3 Dolby Digital, 3/2 (L,C,R,l,r) + LFE ch, ~384 kbps [Профессиональный (полное дублирование)]
Аудио #2: Aнглийский: 48 kHz, AC3 Dolby Digital, 3/2 (L,C,R,l,r) + LFE ch, ~384 kbps [Оригинал]

Общее
Уникальный идентификатор : 29895405687982738147088315679595386167 (0x167DA54CB002D43EC7028B90DC0D5537)
Полное имя : F:\Диск\01. ФИЛЬМЫ\22 июля 22 July 2018\22 июля. 2018.WEB-DLRip-AVC.mkv
Формат : Matroska
Версия формата : Version 4
Размер файла : 3,23 Гбайт
Продолжительность : 2 ч. 24 м.
Общий поток : 3207 Кбит/сек
Программа кодирования : XviD4PSP 7.0.457 DAILY
Библиотека кодирования : Lavf57.71.100
Обложка : Yes
Примечание : Rip by Basma4i&TorrNADO
ErrorDetectionType : Per level 1
Attachments : cover.jpg
ENCODING_INFO : MATROSKA,WEBM > MKV Пользовательский / H264 > X264 ABR 2500kbps HQ / AC3 > AC3 CBR 384kbps / AC3 > AC3 CBR 384kbps
Язык : und

Видео
Идентификатор : 1
Формат : AVC
Формат/Информация : Advanced Video Codec
Профиль формата :
Настройки формата : CABAC / 9 Ref Frames
Параметр CABAC формата : Да
Параметр RefFrames формата : 9 кадров
Идентификатор кодека : V_MPEG4/ISO/AVC
Продолжительность : 2 ч. 24 м.
Битрейт : 2376 Кбит/сек
Номинальный битрейт : 2500 Кбит/сек
Ширина : 1024 пикселя
Высота : 550 пикселей
Соотношение сторон : 1,85:1
Режим частоты кадров : Постоянный
Частота кадров : 23,976 (24000/1001) кадра/сек
Цветовое пространство : YUV
Субдискретизация насыщенности : 4:2:0
Битовая глубина : 8 бит
Тип развёртки : Прогрессивная
Бит/(Пиксели*Кадры) : 0.176
Размер потока : 2,39 Гбайт (74%)
Библиотека кодирования : x264 core 155 r2901M 7d0ff22
Настройки программы : cabac=1 / ref=10 / deblock=1:-3:-3 / analyse=0x3:0x133 / me=umh / subme=10 / psy=1 / psy_rd=1.00:0.20 / mixed_ref=1 / me_range=16 / chroma_me=1 / trellis=2 / 8x8dct=1 / cqm=0 / deadzone=21,11 / fast_pskip=1 / chroma_qp_offset=-3 / threads=11 / lookahead_threads=1 / sliced_threads=0 / nr=0 / decimate=1 / interlaced=0 / bluray_compat=0 / constrained_intra=0 / bframes=10 / b_pyramid=1 / b_adapt=1 / b_bias=10 / direct=1 / weightb=1 / open_gop=0 / weightp=1 / keyint=240 / keyint_min=24 / scenecut=40 / intra_refresh=0 / rc_lookahead=40 / rc=abr / mbtree=1 / bitrate=2500 / ratetol=1.0 / qcomp=0.60 / qpmin=0 / qpmax=69 / qpstep=4 / ip_ratio=1.40 / aq=1:1.00
Язык : English
Default : Да
Forced : Нет
Цветовой диапазон : Limited
Основные цвета : BT.709
Характеристики трансфера : BT.709
Коэффициенты матрицы : BT.709

Аудио #1
Идентификатор : 2
Формат : AC-3
Формат/Информация : Audio Coding 3
Коммерческое название : Dolby Digital
Идентификатор кодека : A_AC3
Продолжительность : 2 ч. 24 м.
Вид битрейта : Постоянный
Битрейт : 384 Кбит/сек
Каналы : 6 каналов
Channel layout : L R C LFE Ls Rs
Частота : 48,0 КГц
Частота кадров : 31,250 кадров/сек (1536 SPF)
Битовая глубина : 16 бит
Метод сжатия : С потерями
Размер потока : 396 Мбайт (12%)
Заголовок : Dub
Язык : Russian
ServiceKind/String : Complete Main
Default : Да
Forced : Нет

Аудио #2
Идентификатор : 3
Формат : AC-3
Формат/Информация : Audio Coding 3
Коммерческое название : Dolby Digital
Идентификатор кодека : A_AC3
Продолжительность : 2 ч. 24 м.
Вид битрейта : Постоянный
Битрейт : 384 Кбит/сек
Каналы : 6 каналов
Channel layout : L R C LFE Ls Rs
Частота : 48,0 КГц
Частота кадров : 31,250 кадров/сек (1536 SPF)
Битовая глубина : 16 бит
Метод сжатия : С потерями
Размер потока : 396 Мбайт (12%)
Заголовок : Original
Язык : English
ServiceKind/String : Complete Main
Default : Нет
Forced : Нет

Текст #1
Идентификатор : 4
Формат : UTF-8
Идентификатор кодека : S_TEXT/UTF8
Идентификатор кодека/Информация : UTF-8 Plain Text
Заголовок : Forced
Язык : Russian
Default : Да
Forced : Да

Текст #2
Идентификатор : 5
Формат : UTF-8
Идентификатор кодека : S_TEXT/UTF8
Идентификатор кодека/Информация : UTF-8 Plain Text
Язык : Russian
Default : Да
Forced : Нет

Текст #3
Идентификатор : 6
Формат : UTF-8
Идентификатор кодека : S_TEXT/UTF8
Идентификатор кодека/Информация : UTF-8 Plain Text
Язык : English
Default : Нет
Forced : Нет

Текст #4
Идентификатор : 7
Формат : UTF-8
Идентификатор кодека : S_TEXT/UTF8
Идентификатор кодека/Информация : UTF-8 Plain Text
Заголовок : SDH
Язык : English
Default : Нет
Forced : Нет

Текст #5
Идентификатор : 8
Формат : UTF-8
Идентификатор кодека : S_TEXT/UTF8
Идентификатор кодека/Информация : UTF-8 Plain Text
Язык : German
Default : Нет
Forced : Нет

Текст #6
Идентификатор : 9
Формат : UTF-8
Идентификатор кодека : S_TEXT/UTF8
Идентификатор кодека/Информация : UTF-8 Plain Text
Язык : French
Default : Нет
Forced : Нет







Релиз от:



   Похожие торренты   Торрент   Размер 
В этой теме нет новых непрочитанных сообщений. 22 июля / 22 July (Пол Гринграсс) [2018, триллер, драма, криминал, биография, WEB-DLRip] DUB

58 | 1

2.18 ГБ

В этой теме нет новых непрочитанных сообщений. 22 июля / 22 July (Пол Гринграсс) [2018, триллер, драма, криминал, биография, WEB-DLRip] DUB

148 | 8

1.46 ГБ

В этой теме нет новых непрочитанных сообщений. Чёрный клановец / BlacKkKlansman (Спайк Ли) [2018, драма, комедия, криминал, биография, WEBDLRip] DUB

54 | 6

2.05 ГБ

В этой теме нет новых непрочитанных сообщений. Кодекс Готти / Gotti (Кевин Коннолли) [2018, драма, криминал, биография, WEBDLRip] MVO

43 | 6

1.46 ГБ

В этой теме нет новых непрочитанных сообщений. Клуб миллиардеров / Billionaire Boys Club (Джеймс Кокс) [2018, триллер, драма, биография, WEBDLRip] MVO

93 | 4

1.46 ГБ

В этой теме нет новых непрочитанных сообщений. Клуб миллиардеров / Billionaire Boys Club (Джеймс Кокс) [2018, триллер, драма, биография, WEBDLRip] MVO

315 | 6

1.46 ГБ

В этой теме нет новых непрочитанных сообщений. Клуб миллиардеров / Billionaire Boys Club (Джеймс Кокс) [ 2018, Триллер, драма, биография, WEBDLRip] MVO

109 | 6

2.03 ГБ




Вы не можете начинать темы
Вы не можете отвечать на сообщения
Вы не можете редактировать свои сообщения
Вы не можете удалять свои сообщения
Вы не можете добавлять вложения

Перейти:  
 Вход
ppkBB3cker v.2 © 2008-2014 @ PPK
[ Time : 0.030s | 15 Queries | GZIP : Off ]

cron