img image001 image001 image001 image001 image001 image001 image001 image001 image001 image001 image001 image001 image001 image001 image001 image001

Planets Sun Sun Sun
Статистика раздачи
Автор: Снежана | Размер: 1.09 ГБ | Добавлен: 16 окт 2018
Раздают: 23    Качают: 4
Скачать торрент
Скачать торрент
Описание торрента

СообщениеДобавлено: 16 окт 2018 

Страна: СССР
Производство: Мосфильм
Жанр: драма
Год выпуска: 1961
Продолжительность: 01:30:36
Перевод: Не требуется
Cубтитры: нет
Оригинальная аудиодорожка: русский
Режиссер: Василий Пронин
В ролях:
Леонид Губанов, Борис Андреев, Зинаида Кириенко, Эдуард Бредун, Борис Новиков, Герман Качин, Изабелла Мень, Вера Енютина, Константин Градополов...
Об актёрах подробней
Описание:
По мотивам повести Л. Н. Толстого.
Юнкер Оленин, представитель петербургской золотой молодёжи, в поисках романтики едет из Петербурга на Кавказ. Его полк расквартирован в казачьей станице. Здесь он влюбляется в красавицу Марьяну (Зинаида Кириенко) и даже решает жениться на ней, но она любит казака Лукашку и ни за что не променяет его на барина...





Исходник: DVD5 R5
Качество видео: DVDRip
Формат видео: AVI
Видео: 688х512 (4:3), 25 fps, XviD ~ 1520 kbps avg, 0.173 bit/pixel
Аудио: 48 kHz, Dolby Digital AC3 2.0, 192 kbps
Раздача от:
Общее
Полное имя : Kazaki.1961.DVDRip_[New-team]_by_AVP_Studio.avi
Формат : AVI
Формат/Информация : Audio Video Interleave
Размер файла : 1,09 Гбайт
Продолжительность : 1 ч. 30 м.
Общий поток : 1722 Кбит/сек
Программа кодирования : VirtualDubMod 1.5.10.3 | www.virtualdub-fr.org || (build 2550/release)
Библиотека кодирования : VirtualDubMod build 2550/release
Видео
Идентификатор : 0
Формат : MPEG-4 Visual
Профиль формата : Advanced Simple@L5
Настройки формата : BVOP1 / Custom Matrix
Параметр BVOP формата : 1
Параметр QPel формата : Нет
Параметр GMC формата : Без точки перехода
Параметр матрицы формата : Выборочная
Идентификатор кодека : XVID
Идентификатор кодека/Подсказка : XviD
Продолжительность : 1 ч. 30 м.
Битрейт : 1520 Кбит/сек
Ширина : 688 пикселей
Высота : 512 пикселей
Соотношение сторон : 4:3
Частота кадров : 25,000 кадров/сек
Цветовое пространство : YUV
Субдискретизация насыщенности : 4:2:0
Битовая глубина : 8 бит
Тип развёртки : Прогрессивная
Метод сжатия : С потерями
Бит/(Пиксели*Кадры) : 0.173
Размер потока : 985 Мбайт (88%)
Библиотека кодирования : XviD 73
Аудио
Идентификатор : 1
Формат : AC-3
Формат/Информация : Audio Coding 3
Коммерческое название : Dolby Digital
Идентификатор кодека : 2000
Продолжительность : 1 ч. 30 м.
Вид битрейта : Постоянный
Битрейт : 192 Кбит/сек
Каналы : 2 канала
Channel layout : L R
Частота : 48,0 КГц
Частота кадров : 31,250 кадров/сек (1536 SPF)
Битовая глубина : 16 бит
Метод сжатия : С потерями
Размер потока : 124 Мбайт (11%)
Выравнивание : Разделение по промежуткам
Продолжительность промежутка : 40 мс. (1,00 видеокадр)
Время предзагрузки промежутка : 500 мс





   Похожие торренты   Торрент   Размер 
В этой теме нет новых непрочитанных сообщений. Казаки (1961) DVDRip-AVC от New-Team

18 | 0

1.09 ГБ

В этой теме нет новых непрочитанных сообщений. Казаки (1961) DVDRip-AVC

61 | 25

1.83 ГБ

В этой теме нет новых непрочитанных сообщений. В трудный час (1961) DVDRip-AVC от New-Team

29 | 0

1.09 ГБ

В этой теме нет новых непрочитанных сообщений. Високосный год (1961) DVDRip-AVC от New-Team

5 | 0

1.09 ГБ

В этой теме нет новых непрочитанных сообщений. Високосный год (1961) DVDRip от New-Team

12 | 0

1.09 ГБ

В этой теме нет новых непрочитанных сообщений. В трудный час (1961) DVDRip от New-Team

13 | 0

1.09 ГБ

В этой теме нет новых непрочитанных сообщений. Командировка (1961) DVDRip от New-Team

22 | 0

744.48 МБ




Вы не можете начинать темы
Вы не можете отвечать на сообщения
Вы не можете редактировать свои сообщения
Вы не можете удалять свои сообщения
Вы не можете добавлять вложения

Перейти:  
 Вход
ppkBB3cker v.2 © 2008-2014 @ PPK
[ Time : 0.017s | 18 Queries | GZIP : Off ]

cron