img image001 image001 image001 image001 image001 image001 image001 image001 image001 image001 image001 image001 image001 image001 image001 image001

Planets Sun Sun Sun
Статистика раздачи
Автор: Снежана | Размер: 744.73 МБ | Добавлен: 16 окт 2018
Раздают: 29    Качают: 2
Скачать торрент
Скачать торрент
Описание торрента

СообщениеДобавлено: 16 окт 2018 

Информация о фильме
Название: Призраки прошлого
Год выхода: 2018
Жанр: Мелодрама
Режиссер: Екатерина Двигубская
В ролях: Алла Юганова, Александр Пашков, Илья Бледный, Татьяна Храмова, Людмила Акулинина, Томас Моцкус, Вероника Волоха, Григорий Гандлевский, Светлана Корчагина, Анна Перелешина, Николай Рыков
О фильме: Лена Махотина до недавнего времени считала себя счастливой женщиной. У нее любящий муж Слава и маленькая дочка Соня. Лена работает парикмахером и больше всего любит устраивать чужую личную жизнь. Но вдруг одна из ее одиноких клиенток рассказывает ей о своем новом бурном романе и показывает фотографию своего избранника, на которой Лена узнает собственного мужа...

Страна: Россия
Студия: "Калейдоскоп фильм", "Грифон"
Продолжительность: 01:29:29
Перевод: Не требуется
Субтитры: Нет
Файл
Кодек: XviD
Качество: HDTVRip
Видео: 656x368 (1.78:1), 25 fps, XviD build 73 ~1025 kbps avg, 0.17 bit/pixel
Звук: 48 kHz, MPEG Layer 3, 2 ch, ~128.00 kbps avg
General
Complete name : Prizraki.Proshlogo.2018.HDTVRip.ot.Portablius.avi
Format : AVI
Format/Info : Audio Video Interleave
File size : 745 MiB
Duration : 1 h 29 min
Overall bit rate : 1 164 kb/s
Writing application : VirtualDubMod 1.5.10.3 | www.virtualdub-fr.org || (build 2550/release)
Writing library : VirtualDubMod build 2550/release
Video
ID : 0
Format : MPEG-4 Visual
Format profile : Advanced Simple@L5
Format settings, BVOP : 1
Format settings, QPel : No
Format settings, GMC : No warppoints
Format settings, Matrix : Custom
Codec ID : XVID
Codec ID/Hint : XviD
Duration : 1 h 29 min
Bit rate : 1 026 kb/s
Width : 656 pixels
Height : 368 pixels
Display aspect ratio : 16:9
Frame rate : 25.000 FPS
Color space : YUV
Chroma subsampling : 4:2:0
Bit depth : 8 bits
Scan type : Progressive
Compression mode : Lossy
Bits/(Pixel*Frame) : 0.170
Stream size : 657 MiB (88%)
Writing library : XviD 73
Audio
ID : 1
Format : MPEG Audio
Format version : Version 1
Format profile : Layer 3
Codec ID : 55
Codec ID/Hint : MP3
Duration : 1 h 29 min
Bit rate mode : Constant
Bit rate : 128 kb/s
Channel(s) : 2 channels
Sampling rate : 48.0 kHz
Compression mode : Lossy
Stream size : 81.9 MiB (11%)
Alignment : Aligned on interleaves
Interleave, duration : 40 ms (1.00 video frame)
Interleave, preload duratio : 504 ms
Writing library : LAME3.99r
Encoding settings : -m s -V 4 -q 2 -lowpass 17 -b 128



   Похожие торренты   Торрент   Размер 
В этой теме нет новых непрочитанных сообщений. Призраки прошлого (2018) HDTVRip-AVC от Files-x

102 | 4

1.37 ГБ

В этой теме нет новых непрочитанных сообщений. Призраки прошлого (2018) HDTVRip от Files-x

227 | 18

1.37 ГБ

В этой теме нет новых непрочитанных сообщений. Призраки прошлого (2018) HDTVRip 720p от MediaClub

38 | 0

2.62 ГБ

В этой теме нет новых непрочитанных сообщений. Улика из прошлого. Призраки фараонов: загадки египетских гробниц (Эфир от 22.05.2018) (ТК Звезда) [2018, документальный, SATRip]

6 | 0

511.57 МБ

В этой теме нет новых непрочитанных сообщений. Призраки прошлого / Abandoned Dead (2015) WEBRip | L1

393 | 27

1.04 ГБ

В этой теме нет новых непрочитанных сообщений. Призраки в Коннектикуте 2: Тени прошлого / The Haunting in Connecticut 2: Ghosts of Georgia (2013) BDRip-AVC от HELLYWOOD | Лицензия

573 | 49

2.18 ГБ

В этой теме нет новых непрочитанных сообщений. Призраки в Коннектикуте 2: Тени прошлого / The Haunting in Connecticut 2: Ghosts of Georgia (2013) BDRip от HQCLUB | Лицензия

852 | 149

1.45 ГБ




Вы не можете начинать темы
Вы не можете отвечать на сообщения
Вы не можете редактировать свои сообщения
Вы не можете удалять свои сообщения
Вы не можете добавлять вложения

Перейти:  
 Вход
ppkBB3cker v.2 © 2008-2014 @ PPK
[ Time : 0.133s | 15 Queries | GZIP : Off ]

cron