img image001 image001 image001 image001 image001 image001 image001 image001 image001 image001 image001 image001 image001 image001 image001 image001

Planets Sun Sun Sun
Статистика раздачи
Автор: Снежана | Размер: 1.09 ГБ | Добавлен: 16 окт 2018
Раздают: 5    Качают: 0
Скачать торрент
Скачать торрент
Описание торрента

СообщениеДобавлено: 16 окт 2018 

Страна: СССР
Производство: Мосфильм
Жанр: драма
Год выпуска: 1961
Продолжительность: 01:28:38
Перевод: Не требуется
Cубтитры: нет
Оригинальная аудиодорожка: русский
Режиссер: Анатолий Эфрос
В ролях:
Иннокентий Смоктуновский, Елена Фадеева, Василий Макаров, Елена Орлова, Виктория Ермольева, Михаил Логвинов, Валентин Никулин, Павел Шальнов, Евгений Агуров, Эмма Цесарская, Владимир Паперный, Марианна Вертинская, Николай Закиев, Лев Дуров, Николай Малюгин, Александра Денисова, Дмитрий Орловский, А. Белая, Алла Будницкая...
Об актёрах подробней
Описание:
По повести Веры Пановой «Времена года».
Геннадий Куприянов (Смоктуновский) работает на стройке. После постоянных ссор с женой герой уходит из дома к медсестре Зине. Ее сын Саша тоже работает на стройке. Ему не нравится Геннадий и парень не знает, как освободить мать от беспокойства и горечи, которые вошли в дом с приходом этого странного человека. Парень стал часто бывать у нового друга. Внимательные родители, умные спокойные разговоры, материальное благополучие - все здесь привлекает парня. Однако глава семьи - заведующий горторгом – давно работает на группу жуликов, орудующих в торговой сети. С ними же, незаметно для себя, оказался связанным и Геннадий Куприянов.





Источник: DVD5 R5
Качество видео: DVDRip-AVC
Формат видео: MKV
Видео: 688->736х552 (4:3), 25 fps, H264 ~ 1565 kbps avg, 0.165 bit/pixel
Аудио: 48 kHz, Dolby Digital AC3 2.0, 192 kbps
Раздача от:
Общее
Полное имя : Visokosnyy.god.1961.DVDRip-AVC_[New-team]_by_AVP_Studio.mkv
Формат : Matroska
Версия формата : Version 2
Размер файла : 1,09 Гбайт
Продолжительность : 1 ч. 28 м.
Общий поток : 1759 Кбит/сек
Дата кодирования : UTC 2018-10-05 14:44:15
Программа кодирования : mkvmerge v6.1.0 ('Old Devil') built on Mar 4 2013 09:10:42
Библиотека кодирования : libebml v1.3.0 + libmatroska v1.4.0
Видео
Идентификатор : 1
Формат : AVC
Формат/Информация : Advanced Video Codec
Профиль формата : High@L4.1
Настройки формата : CABAC / 10 Ref Frames
Параметр CABAC формата : Да
Параметр RefFrames формата : 10 кадров
Идентификатор кодека : V_MPEG4/ISO/AVC
Продолжительность : 1 ч. 28 м.
Битрейт : 1565 Кбит/сек
Ширина : 688 пикселей
Высота : 552 пикселя
Соотношение сторон : 4:3
Режим частоты кадров : Постоянный
Частота кадров : 25,000 кадров/сек
Цветовое пространство : YUV
Субдискретизация насыщенности : 4:2:0
Битовая глубина : 8 бит
Тип развёртки : Прогрессивная
Бит/(Пиксели*Кадры) : 0.165
Размер потока : 971 Мбайт (87%)
Библиотека кодирования : x264 core 157 r2932 303c484
Настройки программы : cabac=1 / ref=10 / deblock=1:-2:-1 / analyse=0x3:0x113 / me=umh / subme=10 / psy=1 / psy_rd=1.00:0.00 / mixed_ref=1 / me_range=32 / chroma_me=1 / trellis=2 / 8x8dct=1 / cqm=0 / deadzone=21,11 / fast_pskip=1 / chroma_qp_offset=-2 / threads=6 / lookahead_threads=1 / sliced_threads=0 / nr=0 / decimate=0 / interlaced=0 / bluray_compat=0 / constrained_intra=0 / bframes=8 / b_pyramid=2 / b_adapt=2 / b_bias=0 / direct=3 / weightb=1 / open_gop=0 / weightp=2 / keyint=250 / keyint_min=25 / scenecut=40 / intra_refresh=0 / rc=2pass / mbtree=0 / bitrate=1565 / ratetol=1.0 / qcomp=0.60 / qpmin=0 / qpmax=69 / qpstep=4 / cplxblur=20.0 / qblur=0.5 / ip_ratio=1.40 / pb_ratio=1.30 / aq=1:1.00
Default : Да
Forced : Нет
Аудио
Идентификатор : 2
Формат : AC-3
Формат/Информация : Audio Coding 3
Коммерческое название : Dolby Digital
Идентификатор кодека : A_AC3
Продолжительность : 1 ч. 28 м.
Вид битрейта : Постоянный
Битрейт : 192 Кбит/сек
Каналы : 2 канала
Channel layout : L R
Частота : 48,0 КГц
Частота кадров : 31,250 кадров/сек (1536 SPF)
Битовая глубина : 16 бит
Метод сжатия : С потерями
Размер потока : 122 Мбайт (11%)
Default : Да
Forced : Нет





   Похожие торренты   Торрент   Размер 
В этой теме нет новых непрочитанных сообщений. Високосный год (1961) DVDRip от New-Team

12 | 0

1.09 ГБ

В этой теме нет новых непрочитанных сообщений. Казаки (1961) DVDRip-AVC от New-Team

18 | 0

1.09 ГБ

В этой теме нет новых непрочитанных сообщений. Командировка (1961) DVDRip-AVC от New-Team

7 | 0

744.19 МБ

В этой теме нет новых непрочитанных сообщений. Командировка (1961) DVDRip от New-Team

22 | 0

744.48 МБ

В этой теме нет новых непрочитанных сообщений. В трудный час (1961) DVDRip-AVC от New-Team

29 | 0

1.09 ГБ

В этой теме нет новых непрочитанных сообщений. В трудный час (1961) DVDRip от New-Team

13 | 0

1.09 ГБ

В этой теме нет новых непрочитанных сообщений. Казаки (1961) DVDRip от New-Team

23 | 4

1.09 ГБ




Вы не можете начинать темы
Вы не можете отвечать на сообщения
Вы не можете редактировать свои сообщения
Вы не можете удалять свои сообщения
Вы не можете добавлять вложения

Перейти:  
 Вход
ppkBB3cker v.2 © 2008-2014 @ PPK
[ Time : 0.275s | 16 Queries | GZIP : Off ]

cron