img image001 image001 image001 image001 image001 image001 image001 image001 image001 image001 image001 image001 image001 image001 image001 image001

Planets Sun Sun Sun
Статистика раздачи
Автор: Снежана | Размер: 9.86 ГБ | Добавлен: 16 окт 2018
Раздают: 10    Качают: 0
Скачать торрент
Скачать торрент
Описание торрента

СообщениеДобавлено: 16 окт 2018 

Информация о фильме
Оригинальное название: Матч
Год выпуска: 2012
Жанр: Драма, спорт
Выпущено: Россия, Украина, Рекун-синема
Режиссер: Андрей Малюков
В ролях: Сергей Безруков, Елизавета Боярская, Эдуард Безродный, Екатерина Климова, Дирк Мартенс, Александр Крыжановский, Александр Кобзарь, Сергей Романович, Игорь Гнездилов, Никита Тезин
О фильме: 1942 год. Николай Раневич, вратарь и звезда киевского «Динамо», теряет самое дорогое — свободу, любимую девушку Анну и возможность играть в футбол. Анна спасает Николая из плена, но теперь они не могут быть вместе… Немцы устраивают чемпионат по футболу между местными командами и сборной Вермахта. Раневич собирает друзей и вновь выходит на поле играть за свою честь, за любовь, за Родину!

Качество: BDRip (1080p)
Видео: MPEG-4 AVC, 9846 Кбит/с, 1920x1040, 25 Кадр/c
Аудио: Русский (AC3, 6 ch, 640 Кбит/с), (DTS, 6 ch, 1509 Кбит/c)
Размер: 9.86 ГБ
Продолжительность: 01:57:39
Язык: Русский
Озвучивание - (Лицензия)
Сохранены оригинальные чаптеры как на Blu-Ray.
За исходный диск спасибо BLUEBIRD
x264 [info]: frame I:1187 Avg QP:13.99 size:225083
x264 [info]: frame P:55411 Avg QP:17.44 size: 86126
x264 [info]: frame B:119865 Avg QP:18.51 size: 30426
x264 [info]: consecutive B-frames: 8.5% 9.4% 12.3% 37.9% 10.3% 12.8% 2.5% 4.5% 0.9% 0.6% 0.2%
x264 [info]: mb I I16..4: 12.4% 61.8% 25.7%
x264 [info]: mb P I16..4: 4.7% 21.6% 5.2% P16..4: 28.5% 25.6% 6.7% 1.3% 0.1% skip: 6.3%
x264 [info]: mb B I16..4: 1.2% 3.0% 1.0% B16..8: 33.2% 15.8% 2.1% direct: 7.5% skip:36.2% L0:41.0% L1:44.0% BI:15.0%
x264 [info]: 8x8 transform intra:65.4% inter:47.4%
x264 [info]: direct mvs spatial:99.6% temporal:0.4%
x264 [info]: coded y,uvDC,uvAC intra: 75.8% 64.3% 35.7% inter: 29.0% 21.7% 6.5%
x264 [info]: i16 v,h,dc,p: 26% 13% 9% 52%
x264 [info]: i8 v,h,dc,ddl,ddr,vr,hd,vl,hu: 14% 11% 13% 8% 10% 11% 10% 11% 12%
x264 [info]: i4 v,h,dc,ddl,ddr,vr,hd,vl,hu: 24% 15% 27% 4% 6% 7% 6% 5% 6%
x264 [info]: i8c dc,h,v,p: 21% 36% 29% 14%
x264 [info]: Weighted P-Frames: Y:1.6% UV:0.7%
x264 [info]: ref P L0: 62.5% 12.8% 17.1% 6.4% 1.3% 0.0%
x264 [info]: ref B L0: 89.7% 8.7% 1.6%
x264 [info]: ref B L1: 94.7% 5.3%
x264 [info]: kb/s:9845.15

Общее
Уникальный идентификатор : 217393942649855024299436611376457197816 (0xA38C8CE63698D8EBABE2690B8E6C28F8)
Полное имя : D:ЗагрузкиMatch.2012.x264.BDRip.(1080p).OlLanDGroup.mkv
Формат : Matroska
Версия формата : Version 4 / Version 2
Размер файла : 9,86 Гбайт
Продолжительность : 1 ч. 57 м.
Общий поток : 12,0 Мбит/сек
Название фильма : Матч.2012.Rip by: ollan
Дата кодирования : UTC 2018-10-08 08:25:30
Программа кодирования : mkvmerge v6.5.0 ('Isn't she lovely') built on Oct 20 2013 12:50:05
Библиотека кодирования : libebml v1.3.0 + libmatroska v1.4.1
Обложка : Yes
Attachments : Cover - Match.png
Видео
Идентификатор : 1
Формат : AVC
Формат/Информация : Advanced Video Codec
Профиль формата : High@L4.1
Настройки формата : CABAC / 4 Ref Frames
Параметр CABAC формата : Да
Параметр ReFrames формата : 4 кадра
Идентификатор кодека : V_MPEG4/ISO/AVC
Продолжительность : 1 ч. 57 м.
Битрейт : 9846 Кбит/сек
Ширина : 1920 пикселей
Высота : 1040 пикселей
Соотношение сторон : 1,85:1
Режим частоты кадров : Постоянный
Частота кадров : 25,000 кадров/сек
Цветовое пространство : YUV
Субдискретизация насыщенности : 4:2:0
Битовая глубина : 8 бит
Тип развёртки : Прогрессивная
Бит/(Пиксели*Кадры) : 0.197
Размер потока : 7,90 Гбайт (80%)
Библиотека кодирования : x264 core 146 r2538 121396c
Настройки программы : cabac=1 / ref=4 / deblock=1:-3:-3 / analyse=0x3:0x133 / me=umh / subme=11 / psy=1 / psy_rd=0.90:0.00 / mixed_ref=1 / me_range=64 / chroma_me=1 / trellis=2 / 8x8dct=1 / cqm=0 / deadzone=21,11 / fast_pskip=0 / chroma_qp_offset=-2 / threads=12 / lookahead_threads=3 / sliced_threads=0 / nr=0 / decimate=0 / interlaced=0 / bluray_compat=0 / constrained_intra=0 / bframes=10 / b_pyramid=2 / b_adapt=2 / b_bias=0 / direct=3 / weightb=1 / open_gop=0 / weightp=2 / keyint=250 / keyint_min=25 / scenecut=40 / intra_refresh=0 / rc_lookahead=40 / rc=2pass / mbtree=0 / bitrate=9846 / ratetol=1.0 / qcomp=0.60 / qpmin=0 / qpmax=69 / qpstep=4 / cplxblur=20.0 / qblur=0.5 / vbv_maxrate=50000 / vbv_bufsize=62500 / nal_hrd=none / filler=0 / ip_ratio=1.40 / pb_ratio=1.30 / aq=1:1.00
Язык : Russian
Default : Да
Forced : Нет
Аудио #1
Идентификатор : 2
Формат : AC-3
Формат/Информация : Audio Coding 3
Идентификатор кодека : A_AC3
Продолжительность : 1 ч. 57 м.
Вид битрейта : Постоянный
Битрейт : 640 Кбит/сек
Каналы : 6 каналов
Расположение каналов : Front: L C R, Side: L R, LFE
Частота : 48,0 КГц
Частота кадров : 31,250 кадров/сек (1536 SPF)
Битовая глубина : 16 бит
Метод сжатия : С потерями
Размер потока : 539 Мбайт (5%)
Заголовок : Лицензия
Язык : Russian
Service kind : Complete Main
Default : Да
Forced : Нет
Аудио #2
Идентификатор : 3
Формат : DTS
Формат/Информация : Digital Theater Systems
Идентификатор кодека : A_DTS
Продолжительность : 1 ч. 57 м.
Вид битрейта : Постоянный
Битрейт : 1509 Кбит/сек
Каналы : 6 каналов
Расположение каналов : Front: L C R, Side: L R, LFE
Частота : 48,0 КГц
Частота кадров : 93,750 кадра/сек (512 SPF)
Битовая глубина : 16 бит
Метод сжатия : С потерями
Размер потока : 1,24 Гбайт (13%)
Заголовок : Лицензия
Язык : Russian
Default : Нет
Forced : Нет
Меню
00:00:00.000 : ru:Chapter 01
00:08:50.480 : ru:Chapter 02
00:13:58.440 : ru:Chapter 03
00:17:52.760 : ru:Chapter 04
00:22:04.359 : ru:Chapter 05
00:30:00.520 : ru:Chapter 06
00:39:32.680 : ru:Chapter 07
00:46:36.640 : ru:Chapter 08
00:52:03.320 : ru:Chapter 09
00:58:34.640 : ru:Chapter 10
01:04:37.600 : ru:Chapter 11
01:10:23.840 : ru:Chapter 12
01:16:03.880 : ru:Chapter 13
01:25:24.640 : ru:Chapter 14
01:32:36.760 : ru:Chapter 15
01:38:47.479 : ru:Chapter 16
01:57:38.040 : ru:Chapter 17





Релиз от: Rip by:



   Похожие торренты   Торрент   Размер 
В этой теме нет новых непрочитанных сообщений. Жизнь и судьба [01-12 из 12] (2012) BDRemux 1080p от OlLanDGroup | Лицензия

1 | 1

37.13 ГБ

В этой теме нет новых непрочитанных сообщений. 28 панфиловцев (2016) BDRip 1080p от OlLanDGroup | Лицензия

63 | 0

9.12 ГБ

В этой теме нет новых непрочитанных сообщений. Заложники (2017) BDRip 1080p от OlLanDGroup | Лицензия

21 | 1

9.12 ГБ

В этой теме нет новых непрочитанных сообщений. Бен-Гур / Ben-Hur (2016) BDRip 1080p от OlLanDGroup | US Transfer | Лицензия

96 | 11

8.4 ГБ

В этой теме нет новых непрочитанных сообщений. Зоология (2016) BDRip 1080p от OlLanDGroup | Лицензия

25 | 3

10.34 ГБ

В этой теме нет новых непрочитанных сообщений. Нелюбовь (2017) BDRip 1080p от OlLanDGroup | Лицензия

305 | 38

12.73 ГБ

В этой теме нет новых непрочитанных сообщений. Тачки 3 / Cars 3 (2017) BDRip 1080p от OlLanDGroup | Лицензия

72 | 8

8.78 ГБ




Вы не можете начинать темы
Вы не можете отвечать на сообщения
Вы не можете редактировать свои сообщения
Вы не можете удалять свои сообщения
Вы не можете добавлять вложения

Перейти:  
 Вход
ppkBB3cker v.2 © 2008-2014 @ PPK
[ Time : 0.402s | 15 Queries | GZIP : Off ]

cron