img image001 image001 image001 image001 image001 image001 image001 image001 image001 image001 image001 image001 image001 image001 image001 image001

Planets Sun Sun Sun
Статистика раздачи
Автор: Снежана | Размер: 1.71 ГБ | Добавлен: 16 окт 2018
Раздают: 4    Качают: 0
Скачать торрент
Скачать торрент
Описание торрента

СообщениеДобавлено: 16 окт 2018 

Заноза

Страна: СССР
Производство: Грузия-фильм
Жанр: мелодрама, комедия
Год выпуска: 1956
Продолжительность: 01:25:04
Режиссер: Николай Санишвили
В ролях: Лейла Абашидзе, Тенгиз Мушкудиани, Георгий Гегечкори, Марина Тбилели, Акакий (Како) Кванталиани, Жужуна Дугладзе, Александр (Сандро) Жоржолиани, Сесилия Такаишвили, Иван Гвинчидзе, Вахтанг Пирцхалава...
Описание: Героиня фильма — энергичная и веселая девушка-шофер, для которой не существует авторитетов — всем и всегда она говорит только, что думает. За острый язычок ее прозвали Занозой, а ее «трудный» характер становится притчей во языцех. И только влюбленность в красавца-архитектора сказочно преображает строптивую красавицу.

Релиз от:
Кодек: х264
Качество: SATRip-AVC
Видео: MPEG-4 AVC, 702x564@748x564, 25 fps, 2633 Кбит/с
Звук: AC3, 2 ch, 192 Кбит/с

x264 [info]: frame I:763 Avg QP:17.77 size: 71621
x264 [info]: frame P:33435 Avg QP:19.53 size: 31608
x264 [info]: frame B:93406 Avg QP:21.14 size: 6463
x264 [info]: consecutive B-frames: 2.7% 5.3% 18.3% 28.6% 21.8% 21.2% 1.7% 0.2% 0.1% 0.1%
Общее
Уникальный идентификатор : 182139839036124926827057976823108337612 (0x8906DB64C813ADC388B34BE66D5FFFCC)
Полное имя : D:Заноза_1956-SATRip-AVC_KORSAR.mkv
Формат : Matroska
Версия формата : Version 2
Размер файла : 1,71 Гбайт
Продолжительность : 1 ч. 25 м.
Общий поток : 2882 Кбит/сек
Название фильма : Заноза_1956-SATRip-AVC_KORSAR
Дата кодирования : UTC 2018-10-02 11:08:49
Программа кодирования : mkvmerge v5.8.0 ('No Sleep / Pillow') built on Sep 2 2012 15:37:04
Библиотека кодирования : libebml v1.2.3 + libmatroska v1.3.0
Видео
Идентификатор : 1
Формат : AVC
Формат/Информация : Advanced Video Codec
Профиль формата : High@L4.1
Параметр CABAC формата : Да
Параметр RefFrames формата : 15 кадров
Идентификатор кодека : V_MPEG4/ISO/AVC
Продолжительность : 1 ч. 25 м.
Битрейт : 2633 Кбит/сек
Ширина : 702 пикселя
Высота : 564 пикселя
Соотношение сторон : 4:3
Соотношение сторон в оригинале : 4:3
Режим частоты кадров : Постоянный
Частота кадров : 25,000 кадров/сек
Цветовое пространство : YUV
Субдискретизация насыщенности : 4:2:0
Битовая глубина : 8 бит
Тип развёртки : Прогрессивная
Бит/(Пиксели*Кадры) : 0.266
Размер потока : 1,56 Гбайт (91%)
Библиотека кодирования : x264 core 152 r2851kMod ba24899
Настройки программы : cabac=1 / ref=15 / deblock=1:-1:-1 / analyse=0x3:0x133 / me=umh / subme=10 / psy=1 / fade_compensate=0.00 / psy_rd=1.05:0.10 / mixed_ref=1 / me_range=40 / chroma_me=1 / trellis=2 / 8x8dct=1 / cqm=0 / deadzone=21,11 / fast_pskip=1 / chroma_qp_offset=-3 / threads=12 / lookahead_threads=2 / sliced_threads=0 / nr=0 / decimate=1 / interlaced=0 / bluray_compat=0 / constrained_intra=0 / bframes=9 / b_pyramid=2 / b_adapt=2 / b_bias=0 / direct=1 / weightb=1 / open_gop=0 / weightp=2 / keyint=250 / keyint_min=25 / scenecut=40 / intra_refresh=0 / rc=crf / mbtree=0 / crf=17.4000 / qcomp=0.63 / qpmin=0 / qpmax=39 / qpstep=4 / ip_ratio=1.40 / pb_ratio=1.30 / aq=1:1.00
Язык : English
Default : Да
Forced : Нет
Цветовой диапазон : Limited
Основные цвета : BT.601 PAL
Характеристики трансфера : BT.470 System B, BT.470 System G
Коэффициенты матрицы : BT.601
Аудио
Идентификатор : 2
Формат : AC-3
Формат/Информация : Audio Coding 3
Параметр Endianness формата : Big
Идентификатор кодека : A_AC3
Продолжительность : 1 ч. 25 м.
Вид битрейта : Постоянный
Битрейт : 192 Кбит/сек
Каналы : 2 канала
Расположение каналов : Front: L R
Частота : 48,0 КГц
Частота кадров : 31,250 кадров/сек (1536 SPF)
Битовая глубина : 16 бит
Метод сжатия : С потерями
Размер потока : 117 Мбайт (7%)
Язык : Russian
Default : Да
Forced : Нет



   Похожие торренты   Торрент   Размер 
В этой теме нет новых непрочитанных сообщений. Заноза (1956) SATRip от New-Team

2 | 0

1.09 ГБ

В этой теме нет новых непрочитанных сообщений. Заноза (1956) SATRip от New-Team

1 | 0

1.09 ГБ

В этой теме нет новых непрочитанных сообщений. Заноза (1956) SATRip от New-Team

2 | 0

744.65 МБ

В этой теме нет новых непрочитанных сообщений. Палка-выручалка (1956) DVDRip-AVC от KORSAR

14 | 2

363.25 МБ

В этой теме нет новых непрочитанных сообщений. Столпы Небес / Pillars of the Sky (1956) WEB-DL 1080p от KORSAR | L1

3 | 1

9.45 ГБ

В этой теме нет новых непрочитанных сообщений. Мир без конца / World Without End (1956) BDRip 1080p от KORSAR | L1

8 | 4

6.54 ГБ

В этой теме нет новых непрочитанных сообщений. Весна на Заречной улице (1956) BDRip 720p от KORSAR | Цветная версия

24 | 2

8.74 ГБ




Вы не можете начинать темы
Вы не можете отвечать на сообщения
Вы не можете редактировать свои сообщения
Вы не можете удалять свои сообщения
Вы не можете добавлять вложения

Перейти:  
 Вход
ppkBB3cker v.2 © 2008-2014 @ PPK
[ Time : 0.142s | 17 Queries | GZIP : Off ]

cron