img image001 image001 image001 image001 image001 image001 image001 image001 image001 image001 image001 image001 image001 image001 image001 image001

Planets Sun Sun Sun
Статистика раздачи
Автор: Снежана | Размер: 2.03 ГБ | Добавлен: 16 окт 2018
Раздают: 16    Качают: 2
Скачать торрент
Скачать торрент
Описание торрента

СообщениеДобавлено: 16 окт 2018 

Менялы

Жанр: комедия
Год выпуска: 1992
Продолжительность: 01:28:01
Режиссёр: Георгий Шенгелия
В ролях: Владимир Ильин, Андрей Пономарев, Юрий Горин, Валентина Теличкина, Оксана Мысина, Валентина Березуцкая, Вадим Захарченко
Описание: СССР. Времена денежной реформы 1961 года. Сто рублей в одночасье превратились в десять. Но медных денег реформа не коснулась. Предприимчивый администратор парка культуры и отдыха Прохор Игнатьевич, желая увеличить свой капитал, пытается обменять крупную сумму на мелкую медь с помощью простодушного водителя Жоры Гракина и экс-зека Роланда Бабаскина...
Релиз от:
Кодек: х264
Качество: HDTVRip-AVC
Видео: MPEG-4 AVC, 886x648, 25 fps, 3038 Кбит/с
Звук: AC3, 2 ch, 192 Кбит/с

x264 [info]: frame I:789 Avg QP:15.84 size:112602
x264 [info]: frame P:30121 Avg QP:17.85 size: 41872
x264 [info]: frame B:101122 Avg QP:20.53 size: 6897
x264 [info]: consecutive B-frames: 1.6% 2.9% 12.8% 17.7% 28.2% 31.9% 3.7% 0.8% 0.2% 0.2%
Общее
Уникальный идентификатор : 195699019031678658269234160062162872983 (0x933A4294DDFA92CA9DEE334C57212A97)
Полное имя : D:Менялы_1992-HDTVRip-AVC_KORSAR.mkv
Формат : Matroska
Версия формата : Version 2
Размер файла : 2,03 Гбайт
Продолжительность : 1 ч. 28 м.
Общий поток : 3295 Кбит/сек
Название фильма : Менялы_1992-HDTVRip-AVC_KORSAR
Дата кодирования : UTC 2018-10-10 20:43:41
Программа кодирования : mkvmerge v5.8.0 ('No Sleep / Pillow') built on Sep 2 2012 15:37:04
Библиотека кодирования : libebml v1.2.3 + libmatroska v1.3.0
Видео
Идентификатор : 1
Формат : AVC
Формат/Информация : Advanced Video Codec
Профиль формата : High@L4.1
Параметр CABAC формата : Да
Параметр RefFrames формата : 14 кадров
Идентификатор кодека : V_MPEG4/ISO/AVC
Продолжительность : 1 ч. 28 м.
Битрейт : 3038 Кбит/сек
Ширина : 886 пикселей
Высота : 648 пикселей
Соотношение сторон : 4:3
Режим частоты кадров : Постоянный
Частота кадров : 25,000 кадров/сек
Цветовое пространство : YUV
Субдискретизация насыщенности : 4:2:0
Битовая глубина : 8 бит
Тип развёртки : Прогрессивная
Бит/(Пиксели*Кадры) : 0.212
Размер потока : 1,87 Гбайт (92%)
Библиотека кодирования : x264 core 152 r2851kMod ba24899
Настройки программы : cabac=1 / ref=14 / deblock=1:-2:-1 / analyse=0x3:0x113 / me=umh / subme=10 / psy=1 / fade_compensate=0.00 / psy_rd=1.05:0.10 / mixed_ref=1 / me_range=32 / chroma_me=1 / trellis=2 / 8x8dct=1 / cqm=0 / deadzone=21,11 / fast_pskip=1 / chroma_qp_offset=-3 / threads=12 / lookahead_threads=2 / sliced_threads=0 / nr=0 / decimate=1 / interlaced=0 / bluray_compat=0 / constrained_intra=0 / bframes=9 / b_pyramid=2 / b_adapt=2 / b_bias=0 / direct=1 / weightb=1 / open_gop=0 / weightp=2 / keyint=250 / keyint_min=25 / scenecut=40 / intra_refresh=0 / rc=crf / mbtree=0 / crf=17.5000 / qcomp=0.63 / qpmin=0 / qpmax=39 / qpstep=4 / ip_ratio=1.40 / pb_ratio=1.30 / aq=1:0.80
Язык : English
Default : Да
Forced : Нет
Цветовой диапазон : Limited
Основные цвета : BT.709
Характеристики трансфера : BT.709
Коэффициенты матрицы : BT.709
Аудио
Идентификатор : 2
Формат : AC-3
Формат/Информация : Audio Coding 3
Параметр Endianness формата : Big
Идентификатор кодека : A_AC3
Продолжительность : 1 ч. 28 м.
Вид битрейта : Постоянный
Битрейт : 192 Кбит/сек
Каналы : 2 канала
Расположение каналов : Front: L R
Частота : 48,0 КГц
Частота кадров : 31,250 кадров/сек (1536 SPF)
Битовая глубина : 16 бит
Метод сжатия : С потерями
Размер потока : 121 Мбайт (6%)
Язык : Russian
Default : Да
Forced : Нет



   Похожие торренты   Торрент   Размер 
В этой теме нет новых непрочитанных сообщений. Менялы (1992) HDTVRip-AVC от ExKinoRay

24 | 0

1.37 ГБ

В этой теме нет новых непрочитанных сообщений. Менялы (1992) DVDRip-AVC от New-Team

235 | 20

1.46 ГБ

В этой теме нет новых непрочитанных сообщений. Менялы (1992) SATRip-AVC от ExKinoRay

144 | 3

1.81 ГБ

В этой теме нет новых непрочитанных сообщений. Менялы (1992) DVDRip от New-Team

42 | 8

1.45 ГБ

В этой теме нет новых непрочитанных сообщений. Менялы (1992) DVDRip от New-Team

29 | 7

742.69 МБ

В этой теме нет новых непрочитанных сообщений. На Дерибасовской хорошая погода, или На Брайтон Бич опять идут дожди (1992) HDTVRip 720р от KORSAR

16 | 2

4.4 ГБ

В этой теме нет новых непрочитанных сообщений. Телохранитель / The Bodyguard (1992) BDRip 720p от KORSAR | D, P, P2, A, L1

7 | 3

14.49 ГБ




Вы не можете начинать темы
Вы не можете отвечать на сообщения
Вы не можете редактировать свои сообщения
Вы не можете удалять свои сообщения
Вы не можете добавлять вложения

Перейти:  
 Вход
ppkBB3cker v.2 © 2008-2014 @ PPK
[ Time : 0.023s | 15 Queries | GZIP : Off ]

cron