img image001 image001 image001 image001 image001 image001 image001 image001 image001 image001 image001 image001 image001 image001 image001 image001

Planets Sun Sun Sun
Статистика раздачи
Автор: Снежана | Размер: 1.09 ГБ | Добавлен: 16 окт 2018
Раздают: 6    Качают: 4
Скачать торрент
Скачать торрент
Описание торрента

СообщениеДобавлено: 16 окт 2018 

Страна: СССР
Производство: Ленфильм
Жанр: детский фильм, драма
Год выпуска: 1961
Продолжительность: 01:14:59
Перевод: Не требуется
Cубтитры: нет
Оригинальная аудиодорожка: русский
Режиссер: Николай Лебедев
В ролях:
Людмила Болтрик, Юрий Фисенко, Андрей Третьяков, Андрей Чернецов, Лара Несмачная, Кирилл Лавров, Татьяна Шамардина, Павел Усовниченко, Василий Меркурьев...
Об актёрах подробней
Описание:
Однажды августовским днем Федя наблюдал, как в их дом въезжали новые жильцы - мужчина и девочка. Девочка очень понравилась Феде - и мальчик стал искать повод, чтобы с ней подружиться. В этот день его отец, экскаваторщик, нашел клад с золотом и отдал его государству. Федя гордился отцом и быстро подружился с Надей. Но однажды, собираясь на охоту, мальчик обнаружил в отцовском сапоге золотые вещи. Федя рассказал все Наде. Ему было стыдно за отца...






Исходник: S-VHS
Качество видео: VHSRip-AVC
Формат видео: MKV
Видео: 720->1341x570 (2,35:1), 25,000 кадров/сек, H264 ~ 1885 kbps avg, 0.184 bit/pixel
Аудио: 48 kHz, Dolby Digital AC3 2.0, 192 kbps
Раздача от:
Общее
Полное имя : Devchonka,s.kotoroy.ya.druzhil.1961.VHSRip-AVC_[New-team]_by_AVP_Studio.mkv
Формат : Matroska
Версия формата : Version 2
Размер файла : 1,09 Гбайт
Продолжительность : 1 ч. 14 м.
Общий поток : 2079 Кбит/сек
Дата кодирования : UTC 2018-10-10 14:16:51
Программа кодирования : mkvmerge v6.1.0 ('Old Devil') built on Mar 4 2013 09:10:42
Библиотека кодирования : libebml v1.3.0 + libmatroska v1.4.0
Видео
Идентификатор : 1
Формат : AVC
Формат/Информация : Advanced Video Codec
Профиль формата : High@L4.1
Настройки формата : CABAC / 10 Ref Frames
Параметр CABAC формата : Да
Параметр RefFrames формата : 10 кадров
Идентификатор кодека : V_MPEG4/ISO/AVC
Продолжительность : 1 ч. 14 м.
Битрейт : 1885 Кбит/сек
Ширина : 720 пикселей
Высота : 570 пикселей
Соотношение сторон : 2,35:1
Режим частоты кадров : Постоянный
Частота кадров : 25,000 кадров/сек
Цветовое пространство : YUV
Субдискретизация насыщенности : 4:2:0
Битовая глубина : 8 бит
Тип развёртки : Прогрессивная
Бит/(Пиксели*Кадры) : 0.184
Размер потока : 990 Мбайт (89%)
Библиотека кодирования : x264 core 157 r2932 303c484
Настройки программы : cabac=1 / ref=10 / deblock=1:-2:-1 / analyse=0x3:0x113 / me=umh / subme=10 / psy=1 / psy_rd=1.00:0.00 / mixed_ref=1 / me_range=32 / chroma_me=1 / trellis=2 / 8x8dct=1 / cqm=0 / deadzone=21,11 / fast_pskip=1 / chroma_qp_offset=-2 / threads=6 / lookahead_threads=1 / sliced_threads=0 / nr=0 / decimate=0 / interlaced=0 / bluray_compat=0 / constrained_intra=0 / bframes=8 / b_pyramid=2 / b_adapt=2 / b_bias=0 / direct=3 / weightb=1 / open_gop=0 / weightp=2 / keyint=250 / keyint_min=25 / scenecut=40 / intra_refresh=0 / rc=2pass / mbtree=0 / bitrate=1885 / ratetol=1.0 / qcomp=0.60 / qpmin=0 / qpmax=69 / qpstep=4 / cplxblur=20.0 / qblur=0.5 / ip_ratio=1.40 / pb_ratio=1.30 / aq=1:1.00
Default : Да
Forced : Нет
Аудио
Идентификатор : 2
Формат : AC-3
Формат/Информация : Audio Coding 3
Коммерческое название : Dolby Digital
Идентификатор кодека : A_AC3
Продолжительность : 1 ч. 14 м.
Вид битрейта : Постоянный
Битрейт : 192 Кбит/сек
Каналы : 2 канала
Channel layout : L R
Частота : 48,0 КГц
Частота кадров : 31,250 кадров/сек (1536 SPF)
Битовая глубина : 16 бит
Метод сжатия : С потерями
Размер потока : 103 Мбайт (9%)
Default : Да
Forced : Нет





   Похожие торренты   Торрент   Размер 
В этой теме нет новых непрочитанных сообщений. Девчонка, с которой я дружил (1961) VHSRip от New-Team

19 | 0

745.73 МБ

В этой теме нет новых непрочитанных сообщений. Чужой бумажник (1961) VHSRip-AVC от New-Team

56 | 3

185.84 МБ

В этой теме нет новых непрочитанных сообщений. Чужой бумажник (1961) VHSRip от New-Team

22 | 0

186.27 МБ

В этой теме нет новых непрочитанных сообщений. Украинская рапсодия (1961) VHSRip

91 | 8

1.36 ГБ

В этой теме нет новых непрочитанных сообщений. Украинская рапсодия (1961) VHSRip >DVD5

13 | 2

4.35 ГБ

В этой теме нет новых непрочитанных сообщений. Дрянная девчонка / My Sassy Girl (2008) DVDRip-AVC от New-Team

255 | 33

744.14 МБ

В этой теме нет новых непрочитанных сообщений. Сказание о любви (Лейли и Меджнун) / Leyli və Məcnun (1961) VHSRip

25 | 10

1.78 ГБ




Вы не можете начинать темы
Вы не можете отвечать на сообщения
Вы не можете редактировать свои сообщения
Вы не можете удалять свои сообщения
Вы не можете добавлять вложения

Перейти:  
 Вход
ppkBB3cker v.2 © 2008-2014 @ PPK
[ Time : 0.025s | 16 Queries | GZIP : Off ]

cron