img image001 image001 image001 image001 image001 image001 image001 image001 image001 image001 image001 image001 image001 image001 image001 image001

Planets Sun Sun Sun
Статистика раздачи
Автор: Снежана | Размер: 745.69 МБ | Добавлен: 16 окт 2018
Раздают: 139    Качают: 5
Скачать торрент
Скачать торрент
Описание торрента

СообщениеДобавлено: 16 окт 2018 

Информация о фильме
Название: Счастья! Здоровья!
Год выхода: 2018
Жанр: Комедия
Режиссер: Марк Горобец, Арман Марутян, Леонид Марголин
В ролях: Зоя Бербер, Камиль Ларин, Марина Федункив, Сергей Аброскин, Наталья Рудова, Грант Тохатян, Даниил Вахрушев, Олег Верещагин, Дарья Пынзарь, Стася Милославская
О фильме:
Три влюблённые пары — татарская, армянская и русская — готовятся сыграть свадьбы. Но выясняется, что для Рината и Гузельки свадьба — это способ добыть деньги, чтобы вернуть дорогую скрипку, для отца Артура важнее всего, чтобы свадьба его сына и москвички-Юли прошла в Армении, а у Светы есть «скелет в шкафу» — её «бывший» Андрей в день свадьбы с Олегом вышел из тюрьмы. Зато гости отрываются от души, а у зрителей фильма «Счастья! Здоровья!» есть уникальная возможность побывать сразу на трёх свадьбах. Тосты и конкурсы, песни и танцы, поцелуи и… драки — что за свадьба без драки?! Это бомбически круто и нереально смешно. Три свадьбы, три пары — такие разные, такие непохожие. Но любовь объединяет, а гости от души желают: «Счастья! Здоровья!»

Страна: Россия
Студия: «Fresh Film»
Продолжительность: 01:23:52
Перевод: Не требуется | iTunes
Субтитры: нет
Файл
Формат: avi
Качество: WEB-DLRip
Видео: XviD build 73, 720x304 (2.35:1), 24.000 fps, 1042 Kbps (0.198 bit/pixel)
Звук: 48.0 kHz, MP3, 2/0 ch, 192 kbps
General
Complete name : D:RazdachiSchastja.Zdorovija.2018.XviD.745.WEB-DLRip.GeneralFilm.avi
Format : AVI
Format/Info : Audio Video Interleave
File size : 746 MiB
Duration : 1 h 23 min
Overall bit rate : 1 243 kb/s
Writing application : VirtualDubMod 1.5.10.3 | www.virtualdub-fr.org || (build 2550/release)
Writing library : VirtualDubMod build 2550/release
Video
ID : 0
Format : MPEG-4 Visual
Format profile : Advanced Simple@L5
Format settings, BVOP : 1
Format settings, QPel : No
Format settings, GMC : No warppoints
Format settings, Matrix : Custom
Codec ID : XVID
Codec ID/Hint : XviD
Duration : 1 h 23 min
Bit rate : 1 042 kb/s
Width : 720 pixels
Height : 304 pixels
Display aspect ratio : 2.35:1
Frame rate : 24.000 FPS
Color space : YUV
Chroma subsampling : 4:2:0
Bit depth : 8 bits
Scan type : Progressive
Compression mode : Lossy
Bits/(Pixel*Frame) : 0.198
Stream size : 625 MiB (84%)
Writing library : XviD 73
Audio
ID : 1
Format : MPEG Audio
Format version : Version 1
Format profile : Layer 3
Codec ID : 55
Codec ID/Hint : MP3
Duration : 1 h 23 min
Bit rate mode : Constant
Bit rate : 192 kb/s
Channel(s) : 2 channels
Sampling rate : 48.0 kHz
Compression mode : Lossy
Stream size : 115 MiB (15%)
Alignment : Aligned on interleaves
Interleave, duration : 42 ms (1.00 video frame)
Interleave, preload duratio : 504 ms
Writing library : LAME3.99r
Encoding settings : -m s -V 4 -q 0 -lowpass 18.6 -b 192

Релиз от:



   Похожие торренты   Торрент   Размер 
В этой теме нет новых непрочитанных сообщений. Счастья! Здоровья! (2018) WEB-DLRip от GeneralFilm | iTunes

200 | 6

1.46 ГБ

В этой теме нет новых непрочитанных сообщений. Счастья! Здоровья! (2018) WEB-DLRip от Generalfilm | КПК | iTunes

131 | 5

318.54 МБ

В этой теме нет новых непрочитанных сообщений. Счастья! Здоровья! (2018) WEB-DLRip | iTunes

3120 | 66

1.37 ГБ

В этой теме нет новых непрочитанных сообщений. Счастья! Здоровья! (2018) WEB-DLRip от Scarabey | iTunes

278 | 1

1.4 ГБ

В этой теме нет новых непрочитанных сообщений. Счастья! Здоровья! (2018) WEB-DLRip от MegaPeer | iTunes

125 | 2

747.03 МБ

В этой теме нет новых непрочитанных сообщений. Счастья! Здоровья! (2018) WEB-DLRip от MegaPeer | iTunes

261 | 14

1.46 ГБ

В этой теме нет новых непрочитанных сообщений. Счастья! Здоровья! (2018) WEB-DL 1080p | iTunes

1250 | 28

2.95 ГБ




Вы не можете начинать темы
Вы не можете отвечать на сообщения
Вы не можете редактировать свои сообщения
Вы не можете удалять свои сообщения
Вы не можете добавлять вложения

Перейти:  
 Вход
ppkBB3cker v.2 © 2008-2014 @ PPK
[ Time : 0.025s | 15 Queries | GZIP : Off ]

cron