img image001 image001 image001 image001 image001 image001 image001 image001 image001 image001 image001 image001 image001 image001 image001 image001

Planets Sun Sun Sun
Статистика раздачи
Автор: Снежана | Размер: 1.37 ГБ | Добавлен: 16 окт 2018
Раздают: 24    Качают: 0
Скачать торрент
Скачать торрент
Описание торрента

СообщениеДобавлено: 16 окт 2018 

Название: Менялы
Год выхода: 1992
Жанр: Комедия, Приключения
Продолжительность: 01:28:01
Режиссер: Георгий Шенгелия
Сценарий: Алексей Тимм
Композитор: Георгий Мовсесян
В ролях: Владимир Ильин, Андрей Пономарев, Вадим Захарченко, Юрий Горин, Валентина Теличкина, Оксана Мысина, Ренат Давлетьяров, Наиль Идрисов, Олег Дурыгин, Алла Мещерякова
О фильме:
Остроумная, остросюжетная комедия рассказывает об «авантюре времен денежной реформы» 1961 года, когда «весь многомиллионный советский народ» запустил в космос Гагарина, а иностранцы, «не раздумывая, меняли один американский доллар на 65 советских копеек». «Всего лишь 20 лет отделяли тогда наш народ от светлой эры всего человечества», а два человека тем временем, по заданию подпольного миллионера, сомневающегося в отмене денег при коммунизме, занимались тем, что меняли деньги на медные монеты. Почему? Попробуйте догадаться сами, а не догадаетесь — посмотрите...

Страна: Россия / США
Студия: Киностудия 12А / Славутич / TWELVE L.A. Inc.
Перевод: Не требуется (оригинальный)
Качество: HDTVRip-AVC
Видео: MPEG-4 AVC, ~ 2028 Кбит/с, 720x526 (4:3), 25.000 fps
Аудио: 48 kHz, AC3, 2.0, 192 Kbps
General
Unique ID : 254379589379540224280859983299400906979 (0xBF5FBA125CF3BC60926644F156EF38E3)
Complete name : D:Menialy.1992.HDTVRip.AVC.ExKinoRay.mkv
Format : Matroska
Format version : Version 2
File size : 1.37 GiB
Duration : 1 h 28 min
Overall bit rate : 2 222 kb/s
Movie name : Menialy 1992 from ExKinoRay
Encoded date : UTC 2018-10-12 11:46:53
Writing application : mkvmerge v5.6.0 ('Kenya Kane') built on May 27 2012 16:44:04
Writing library : libebml v1.2.3 + libmatroska v1.3.0
Video
ID : 1
Format : AVC
Format/Info : Advanced Video Codec
Format profile : High@L4.1
Format settings, CABAC : Yes
Format settings, ReFrames : 12 frames
Codec ID : V_MPEG4/ISO/AVC
Duration : 1 h 28 min
Bit rate : 2 028 kb/s
Width : 720 pixels
Height : 526 pixels
Display aspect ratio : 4:3
Frame rate mode : Constant
Frame rate : 25.000 FPS
Color space : YUV
Chroma subsampling : 4:2:0
Bit depth : 8 bits
Scan type : Progressive
Bits/(Pixel*Frame) : 0.214
Stream size : 1.22 GiB (89%)
Title : Enigma
Writing library : x264 core 152 r2851 ba24899
Encoding settings : cabac=1 / ref=12 / deblock=1:-2:-2 / analyse=0x3:0x113 / me=umh / subme=10 / psy=1 / psy_rd=1.05:0.10 / mixed_ref=1 / me_range=32 / chroma_me=1 / trellis=2 / 8x8dct=1 / cqm=0 / deadzone=21,11 / fast_pskip=0 / chroma_qp_offset=-3 / threads=12 / lookahead_threads=2 / sliced_threads=0 / nr=0 / decimate=0 / interlaced=0 / bluray_compat=0 / constrained_intra=0 / bframes=9 / b_pyramid=2 / b_adapt=2 / b_bias=0 / direct=3 / weightb=1 / open_gop=0 / weightp=2 / keyint=250 / keyint_min=25 / scenecut=40 / intra_refresh=0 / rc=2pass / mbtree=0 / bitrate=2028 / ratetol=1.0 / qcomp=0.65 / qpmin=0 / qpmax=51 / qpstep=4 / cplxblur=20.0 / qblur=0.5 / ip_ratio=1.40 / pb_ratio=1.30 / aq=1:0.90
Language : English
Default : Yes
Forced : No
Color range : Limited
Color primaries : BT.709
Transfer characteristics : BT.709
Matrix coefficients : BT.709
Audio
ID : 2
Format : AC-3
Format/Info : Audio Coding 3
Mode extension : CM (complete main)
Format settings, Endianness : Big
Codec ID : A_AC3
Duration : 1 h 28 min
Bit rate mode : Constant
Bit rate : 192 kb/s
Channel(s) : 2 channels
Channel positions : Front: L R
Sampling rate : 48.0 kHz
Frame rate : 31.250 FPS (1536 spf)
Compression mode : Lossy
Stream size : 121 MiB (9%)
Language : Russian
Default : Yes
Forced : No


Релиз от:
Автор релиза:



   Похожие торренты   Торрент   Размер 
В этой теме нет новых непрочитанных сообщений. Менялы (1992) SATRip-AVC от ExKinoRay

144 | 3

1.81 ГБ

В этой теме нет новых непрочитанных сообщений. Менялы (1992) HDTVRip-AVC от KORSAR

16 | 2

2.03 ГБ

В этой теме нет новых непрочитанных сообщений. Менялы (1992) DVDRip-AVC от New-Team

235 | 20

1.46 ГБ

В этой теме нет новых непрочитанных сообщений. Менялы (1992) DVDRip от New-Team

29 | 7

742.69 МБ

В этой теме нет новых непрочитанных сообщений. Менялы (1992) DVDRip от New-Team

42 | 8

1.45 ГБ

В этой теме нет новых непрочитанных сообщений. 1992 / 1992 [01x01-02 из 10] (2015) WEB-DL 720p от ExKinoRay | Эй Би Видео

25 | 39

11.71 ГБ

В этой теме нет новых непрочитанных сообщений. 1992 / 1992 [01x01-02 из 10] (2015) WEB-DLRip от ExKinoRay | Эй Би Видео

19 | 11

2.93 ГБ




Вы не можете начинать темы
Вы не можете отвечать на сообщения
Вы не можете редактировать свои сообщения
Вы не можете удалять свои сообщения
Вы не можете добавлять вложения

Перейти:  
 Вход
ppkBB3cker v.2 © 2008-2014 @ PPK
[ Time : 0.020s | 16 Queries | GZIP : Off ]

cron