img image001 image001 image001 image001 image001 image001 image001 image001 image001 image001 image001 image001 image001 image001 image001 image001

Planets Sun Sun Sun
Статистика раздачи
Автор: Снежана | Размер: 4.89 ГБ | Добавлен: 16 окт 2018
Раздают: 18    Качают: 1
Скачать торрент
Скачать торрент
Описание торрента

СообщениеДобавлено: 16 окт 2018 

Страна: СССР
Год выпуска: 1962
Студия: Одесская киностудия
Жанр: драма, мелодрама, комедия, музыка
Продолжительность: 01:32:33
Перевод: не требуется
Оригинальная аудиодорожка: русский
Cубтитры: нет
Режиссер: Евгений Ташков
В ролях:
Екатерина Савинова, Анатолий Папанов, Юрий Горобец, Антонина Максимова, Надежда Животова, Александр Ширвиндт, Юрий Белов, Борис Бибиков...
Об актёрах подробней
Описание:
Простая и обаятельная девушка Фрося Бурлакова приезжает из сибирской деревушки в Москву поступать в консерваторию. У Фроси сильный и красивый голос, она подвижна и артистична, а потому ее заветная мечта должна непременно сбыться. Прием в консерваторию уже закончен, но Фрося не собирается опускать руки. Проведя в консерватории не один день, Фрося все же добивается, чтобы ее прослушал известный профессор...






Исходник: HDTV
Тип релиза: HDTVRip 1080p
Контейнер: MKV
Видео: 1876x1080 (16:9), 25,000 fps, H264 ~ 7180 kbps avg, 0.142 bit/pixel
Аудио: 48 kHz, Dolby Digital AC3 5.1 ch, 384.00 kbps
Раздача от:
Общее
Полное имя : Prihodite.zavtra...1962.BDRip1080p_[New-team]_by_AVP_Studio.mkv
Формат : Matroska
Версия формата : Version 4
Размер файла : 4,89 Гбайт
Продолжительность : 1 ч. 32 м.
Общий поток : 7564 Кбит/сек
Дата кодирования : UTC 2018-10-14 07:37:07
Программа кодирования : mkvmerge v17.0.0 ('Be Ur Friend') 64-bit
Библиотека кодирования : libebml v1.3.5 + libmatroska v1.4.8
Видео
Идентификатор : 1
Формат : AVC
Формат/Информация : Advanced Video Codec
Профиль формата : High@L4.1
Настройки формата : CABAC / 4 Ref Frames
Параметр CABAC формата : Да
Параметр RefFrames формата : 4 кадра
Идентификатор кодека : V_MPEG4/ISO/AVC
Продолжительность : 1 ч. 32 м.
Битрейт : 7180 Кбит/сек
Ширина : 1876 пикселей
Высота : 1080 пикселей
Соотношение сторон : 16:9
Режим частоты кадров : Постоянный
Частота кадров : 25,000 кадров/сек
Цветовое пространство : YUV
Субдискретизация насыщенности : 4:2:0
Битовая глубина : 8 бит
Тип развёртки : Прогрессивная
Бит/(Пиксели*Кадры) : 0.142
Размер потока : 4,64 Гбайт (95%)
Библиотека кодирования : x264 core 157 r2932 303c484
Настройки программы : cabac=1 / ref=4 / deblock=1:-3:-3 / analyse=0x3:0x113 / me=umh / subme=10 / psy=1 / psy_rd=1.00:0.00 / mixed_ref=1 / me_range=32 / chroma_me=1 / trellis=2 / 8x8dct=1 / cqm=0 / deadzone=21,11 / fast_pskip=1 / chroma_qp_offset=-2 / threads=6 / lookahead_threads=1 / sliced_threads=0 / nr=0 / decimate=0 / interlaced=0 / bluray_compat=0 / constrained_intra=0 / bframes=8 / b_pyramid=2 / b_adapt=2 / b_bias=0 / direct=3 / weightb=1 / open_gop=0 / weightp=2 / keyint=250 / keyint_min=25 / scenecut=40 / intra_refresh=0 / rc_lookahead=40 / rc=2pass / mbtree=1 / bitrate=7180 / ratetol=1.0 / qcomp=0.60 / qpmin=0 / qpmax=69 / qpstep=4 / cplxblur=20.0 / qblur=0.5 / ip_ratio=1.40 / aq=1:1.00
Default : Да
Forced : Нет
Аудио
Идентификатор : 2
Формат : AC-3
Формат/Информация : Audio Coding 3
Коммерческое название : Dolby Digital
Идентификатор кодека : A_AC3
Продолжительность : 1 ч. 32 м.
Вид битрейта : Постоянный
Битрейт : 384 Кбит/сек
Каналы : 6 каналов
Channel layout : L R C LFE Ls Rs
Частота : 48,0 КГц
Частота кадров : 31,250 кадров/сек (1536 SPF)
Битовая глубина : 16 бит
Метод сжатия : С потерями
Размер потока : 254 Мбайт (5%)
Default : Да
Forced : Нет





   Похожие торренты   Торрент   Размер 
В этой теме нет новых непрочитанных сообщений. Приходите завтра... (1962) HDTVRip от New-Team | Цветная версия

10 | 0

1.09 ГБ

В этой теме нет новых непрочитанных сообщений. Приходите завтра... (1962) HDTVRip-AVC от New-Team | Цветная версия

16 | 4

1.46 ГБ

В этой теме нет новых непрочитанных сообщений. Приходите завтра... (1962) HDTVRip 720p от New-Team | Цветная версия

28 | 0

2.91 ГБ

В этой теме нет новых непрочитанных сообщений. Сердце безрассудно / Dil Tera Deewana (1962) DVDRip | L1 | Цветная версия

12 | 7

2.16 ГБ

В этой теме нет новых непрочитанных сообщений. Волга-Волга (1938) HDTVRip от New-Team | Цветная версия

19 | 11

745.11 МБ

В этой теме нет новых непрочитанных сообщений. Волга-Волга (1938) HDTVRip-AVC от New-Team | Цветная версия

71 | 13

1.46 ГБ

В этой теме нет новых непрочитанных сообщений. Волга-Волга (1938) HDTVRip от New-Team | Цветная версия

76 | 27

1.46 ГБ




Вы не можете начинать темы
Вы не можете отвечать на сообщения
Вы не можете редактировать свои сообщения
Вы не можете удалять свои сообщения
Вы не можете добавлять вложения

Перейти:  
 Вход
ppkBB3cker v.2 © 2008-2014 @ PPK
[ Time : 0.030s | 17 Queries | GZIP : Off ]

cron