img image001 image001 image001 image001 image001 image001 image001 image001 image001 image001 image001 image001 image001 image001 image001 image001

Planets Sun Sun Sun
Статистика раздачи
Автор: Снежана | Размер: 516.32 МБ | Добавлен: 17 окт 2018
Раздают: 1    Качают: 0
Скачать торрент
Скачать торрент
Описание торрента

СообщениеДобавлено: 17 окт 2018 

Тварь с равнины Якка / The Beast of Yucca Flats


Перевод: Любительский (одноголосый) [Трамвай-фильм], субтитры: отсутствуют
Формат: DVDRip, AVI, XviD, MP3
Страна: США
Режиссер: Коулмэн Френсис
Жанр: ужасы
Продолжительность: 00:53:57
Год выпуска: 1961
В ролях: Даглас Мелор, Тор Джонсон, Барбара Френсис, Бинг Стеффорд
Описание: Из СССР сбегает ученый, который прихватил с собой материалы по секретной ракетной программе советов. Однако агенты кремля настигают его на американском ядерном полигоне, в момент атомного взрыва...
Доп. информация: Фильм находится в Общественном достоянии. Изначально снимался без звука (поэтому тут нет крупных планов с говорящими актерами, их озвучили позже). Иногда встречается название "равнина Юкка", но это не правильно - закадровый голос чётко говорит "Якка".



Видео: 512x384 (1.33:1), 29.970 fps, XviD build 50 ~1160 kbps avg, 0.20 bit/pixel
Аудио: 48 kHz, MPEG Layer 3, 2 ch, ~160.00 kbps avg

Complete name : Тварь с равнины Якка.avi
Format : AVI
Format/Info : Audio Video Interleave
File size : 516 MiB
Duration : 53 min 56 s
Overall bit rate : 1 338 kb/s

Video
ID : 0
Format : MPEG-4 Visual
Format profile : Simple@L3
Format settings, BVOP : No
Format settings, QPel : No
Format settings, GMC : No warppoints
Format settings, Matrix : Default (H.263)
Codec ID : XVID
Codec ID/Hint : XviD
Duration : 53 min 56 s
Bit rate : 1 160 kb/s
Width : 512 pixels
Height : 384 pixels
Display aspect ratio : 4:3
Frame rate : 29.970 (30000/1001) FPS
Original frame rate : 29.000 FPS
Color space : YUV
Chroma subsampling : 4:2:0
Bit depth : 8 bits
Scan type : Progressive
Compression mode : Lossy
Bits/(Pixel*Frame) : 0.197
Stream size : 447 MiB (87%)
Writing library : XviD 1.2.1 (UTC 2008-12-04)

Audio
ID : 1
Format : MPEG Audio
Format version : Version 1
Format profile : Layer 3
Format settings : Joint stereo / MS Stereo
Codec ID : 55
Codec ID/Hint : MP3
Duration : 53 min 56 s
Bit rate mode : Constant
Bit rate : 160 kb/s
Channel(s) : 2 channels
Sampling rate : 48.0 kHz
Compression mode : Lossy
Stream size : 61.7 MiB (12%)
Alignment : Aligned on interleaves
Interleave, duration : 24 ms (0.72 video frame)
Writing library : LAME3.98.2











   Похожие торренты   Торрент   Размер 
В этой теме нет новых непрочитанных сообщений. Сексуальная тварь / Sexy Beast (2000) DVD9 | P

0 | 6

7.3 ГБ

В этой теме нет новых непрочитанных сообщений. Сексуальная тварь / Sexy Beast (2000) HDRip-AVC | P

175 | 124

1.38 ГБ

В этой теме нет новых непрочитанных сообщений. Сексуальная тварь / Sexy Beast (2000) BDRip-AVC от MediaClub | P, P2, A

245 | 82

2.39 ГБ

В этой теме нет новых непрочитанных сообщений. Сексуальная тварь / Sexy Beast (2000) HDRip-AVC | iPhone | P

28 | 37

1.05 ГБ

В этой теме нет новых непрочитанных сообщений. Сексуальная тварь / Sexy Beast (2000) HDRip-AVC | iPhone

2 | 3

489.64 МБ

В этой теме нет новых непрочитанных сообщений. Сексуальная тварь / Sexy Beast (2000) BDRip от Rulya74 | P

132 | 26

2.06 ГБ

В этой теме нет новых непрочитанных сообщений. Сексуальная тварь / Sexy Beast (2000) ВDRip 720p

31 | 23

3.71 ГБ




Вы не можете начинать темы
Вы не можете отвечать на сообщения
Вы не можете редактировать свои сообщения
Вы не можете удалять свои сообщения
Вы не можете добавлять вложения

Перейти:  
 Вход
ppkBB3cker v.2 © 2008-2014 @ PPK
[ Time : 3.697s | 15 Queries | GZIP : Off ]

cron