img image001 image001 image001 image001 image001 image001 image001 image001 image001 image001 image001 image001 image001 image001 image001 image001

Planets Sun Sun Sun
Статистика раздачи
Автор: Снежана | Размер: 2.57 ГБ | Добавлен: 17 окт 2018
Раздают: 1    Качают: 0
Скачать торрент
Скачать торрент
Описание торрента

СообщениеДобавлено: 17 окт 2018 

Проклятый путь / Road to Perdition

Перевод: Профессиональный (полное дублирование)
Субтитры: Русские, английские
Формат: BDRip-AVC, MKV, H.264, AC3
Страна: CША
Режиссер: Сэм Мендес
Жанр: триллер, драма, криминал
Продолжительность: 01:56:58
Год выпуска: 2002

В ролях: Том Хэнкс, Пол Ньюман, Джуд Лоу, Дженнифер Джейсон Ли, Стенли Туччи, Дэниэл Крэйг, Тайлер Хёхлин, Лиам Эйкен, Киаран Хиндс, Дилан Бейкер

Описание: Чикаго времен Великой депрессии. Два сына — Майкл Салливан-младший и Коннор Руни отчаянно стараются завоевать расположение своих отцов — Майкла Салливана-старшего, гангстера из ирландского клана, и Джона Руни, босса Салливана-старшего, заменившего ему отца. Ревность и соперничество толкают их всех на гибельный путь.
Семья Салливана-старшего становится жертвой страшной «профессии» главы семейства. Погибают его любимая жена и младший сын Питер. Месть и трагедия становятся постоянными спутниками Майкла и его оставшегося в живых сына.




Видео: 1024x436 (2.35:1), 23.976 fps, AVC MPEG-4 (H.264), ~1860 kbps, 0.174 bit/pixel
Аудио #1: Русский: 48 kHz, AC3 Dolby Digital, 6 ch, ~384 kbps [Профессиональный (полное дублирование)]
Аудио #2: Английский: 48 kHz, AC3 Dolby Digital, 6 ch, ~448 kbps [Оригинал]
Аудио #3: Русский: 48 kHz, AC3 Dolby Digital, 6 ch, ~448 kbps [Авторский (одноголосый)] В. Горчаков (внешним файлом)

Формат : Matroska
Версия формата : Version 2
Размер файла : 2,20 Гбайт
Продолжительность : 1 ч. 56 м.
Общий поток : 2693 Кбит/сек
Дата кодирования : UTC 2014-01-17 15:28:08
Программа кодирования : mkvmerge v5.1.0 ('And so it goes') built on Nov 28 2011 23:58:28
Библиотека кодирования : libebml v1.2.3 + libmatroska v1.3.0
Видео
Идентификатор : 1
Формат : AVC
Формат/Информация : Advanced Video Codec
Профиль формата :
Параметр CABAC формата : Да
Параметр ReFrames формата : 15 кадров
Идентификатор кодека : V_MPEG4/ISO/AVC
Продолжительность : 1 ч. 56 м.
Битрейт : 1860 Кбит/сек
Ширина : 1024 пикселя
Высота : 436 пикселей
Соотношение сторон : 2,35:1
Режим частоты кадров : Постоянный
Частота кадров : 23,976 кадра/сек
Цветовое пространство : YUV
Субдискретизация насыщенности : 4:2:0
Битовая глубина : 8 бит
Тип развёртки : Прогрессивная
Бит/(Пиксели*Кадры) : 0.174
Размер потока : 1,48 Гбайт (67%)
Библиотека кодирования : x264 core 133 r2334 a3ac64b
Настройки программы : cabac=1 / ref=15 / deblock=1:-2:-1 / analyse=0x3:0x113 / me=umh / subme=11 / psy=1 / psy_rd=1.07:0.10 / mixed_ref=1 / me_range=24 / chroma_me=1 / trellis=2 / 8x8dct=1 / cqm=0 / deadzone=21,11 / fast_pskip=0 / chroma_qp_offset=-3 / threads=12 / lookahead_threads=3 / sliced_threads=0 / nr=0 / decimate=0 / interlaced=0 / bluray_compat=0 / constrained_intra=0 / bframes=11 / b_pyramid=2 / b_adapt=2 / b_bias=0 / direct=3 / weightb=1 / open_gop=0 / weightp=2 / keyint=250 / keyint_min=23 / scenecut=40 / intra_refresh=0 / rc_lookahead=60 / rc=2pass / mbtree=1 / bitrate=1860 / ratetol=1.0 / qcomp=0.65 / qpmin=0 / qpmax=41 / qpstep=4 / cplxblur=20.0 / qblur=0.5 / ip_ratio=1.35 / aq=1:1.00
Язык : English
Default : Да
Forced : Нет
Основные цвета : BT.709
Характеристики трансфера : BT.709
Коэффициенты матрицы : BT.709
Аудио #1
Идентификатор : 2
Формат : AC-3
Формат/Информация : Audio Coding 3
Расширение режима : CM (complete main)
Параметр Endianness формата : Big
Идентификатор кодека : A_AC3
Продолжительность : 1 ч. 56 м.
Вид битрейта : Постоянный
Битрейт : 384 Кбит/сек
Каналы : 6 каналов
Расположение каналов : Front: L C R, Side: L R, LFE
Частота : 48,0 КГц
Битовая глубина : 16 бит
Метод сжатия : С потерями
Размер потока : 321 Мбайт (14%)
Заголовок : DUB
Язык : Russian
Default : Да
Forced : Нет
Аудио #2
Идентификатор : 3
Формат : AC-3
Формат/Информация : Audio Coding 3
Расширение режима : CM (complete main)
Параметр Endianness формата : Big
Идентификатор кодека : A_AC3
Продолжительность : 1 ч. 56 м.
Вид битрейта : Постоянный
Битрейт : 448 Кбит/сек
Каналы : 6 каналов
Расположение каналов : Front: L C R, Side: L R, LFE
Частота : 48,0 КГц
Битовая глубина : 16 бит
Метод сжатия : С потерями
Размер потока : 375 Мбайт (17%)
Язык : English
Default : Нет
Forced : Нет
Текст #1
Идентификатор : 4
Формат : UTF-8
Идентификатор кодека : S_TEXT/UTF8
Идентификатор кодека/Информация : UTF-8 Plain Text
Язык : Russian
Default : Да
Forced : Нет
Текст #2
Идентификатор : 5
Формат : UTF-8
Идентификатор кодека : S_TEXT/UTF8
Идентификатор кодека/Информация : UTF-8 Plain Text
Язык : English
Default : Нет
Forced : Нет












   Похожие торренты   Торрент   Размер 
В этой теме нет новых непрочитанных сообщений. Проклятый путь / Road to Perdition (Сэм Мендес) [Open Matte] [2002, триллер, драма, криминал, WEB-DLRip-AVC] DUB+MVO+DVO(ukr)

8 | 1

3.4 ГБ

В этой теме нет новых непрочитанных сообщений. Проклятый путь / Road to Perdition (Сэм Мендес) [Open Matte] [2002, триллер, драма, криминал, WEB-DLRip-AVC] DUB

20 | 1

744.92 МБ

В этой теме нет новых непрочитанных сообщений. Проклятый путь / Road to Perdition (2002) BDRip 720p

1654 | 85

6.97 ГБ

В этой теме нет новых непрочитанных сообщений. Проклятый путь / Road to Perdition (2002) BDRip 1080p

4 | 4

4.28 ГБ

В этой теме нет новых непрочитанных сообщений. Проклятый путь / Road to Perdition (2002) BDRip 720p | USA Transfer New | A

182 | 20

4.37 ГБ

В этой теме нет новых непрочитанных сообщений. Пес-призрак: Путь самурая / Ghost Dog: The Way of the Samurai (Джим Джармуш) [1999, боевик, триллер, драма, криминал, LowHDRip] DVO / Боевики /Action

1 | 0

745.78 МБ

В этой теме нет новых непрочитанных сообщений. Бригада (1-15 серии из 15) (Алексей Сидоров) [2002, криминал, драма, триллер, боевик, WEBRip-AVC]

39 | 5

27.06 ГБ




Вы не можете начинать темы
Вы не можете отвечать на сообщения
Вы не можете редактировать свои сообщения
Вы не можете удалять свои сообщения
Вы не можете добавлять вложения

Перейти:  
 Вход
ppkBB3cker v.2 © 2008-2014 @ PPK
[ Time : 0.122s | 17 Queries | GZIP : Off ]

cron