img image001 image001 image001 image001 image001 image001 image001 image001 image001 image001 image001 image001 image001 image001 image001 image001

Planets Sun Sun Sun
Статистика раздачи
Автор: Снежана | Размер: 2.17 ГБ | Добавлен: 17 окт 2018
Раздают: 17    Качают: 0
Скачать торрент
Скачать торрент
Описание торрента

СообщениеДобавлено: 17 окт 2018 

Последний беспредел / Беспредел: Последняя глава / Autoreiji saishusho / Outrage Coda

Перевод: Профессиональный (многоголосый, закадровый) iTunes
Субтитры: Русские, английские
Формат: BDRip-AVC, MKV, H.264, AC3
Страна: Япония
Режиссер: Такеши Китано
Жанр: драма, криминал
Продолжительность: 01:44:45
Год выпуска: 2017

В ролях: Такеши Китано, Тосиюки Нисида, Тацуо Надака, Кэн Мицуиси, Хакурю, Икудзи Накамура, Сансэй Сиоми, Ютака Мацусигэ, Кандзи Цуда, Рен Осуги

Описание: После уничтожения синдиката Санно семьей Ханабиси ветеран Отомо осел на корейском острове Чеджу под защитой мистера Чана. Присматривает за отелями и борделями, ходит на рыбалку. Однажды якудза семьи Ханабиси плохо обходится с его работницами и оскорбительно себя ведёт. А вместо компенсации ущерба убивает помощника Отомо. Конфликтом решает воспользоваться заместитель главы синдиката Ханабиси, чтобы захватить власть и истребить конкурентов.



Видео: 1024x428 (2.40:1), 23.976 fps, AVC MPEG-4 (H.264), ~1940 kbps, 0.185 bit/pixel
Аудио #1: Русский: 48 kHz, AC3 Dolby Digital, 6 ch, ~384 kbps [Профессиональный (многоголосый, закадровый)]
Аудио #2: Японский: 48 kHz, AC3 Dolby Digital, 6 ch, ~640 kbps [Оригинал]

Формат : Matroska
Версия формата : Version 4 / Version 2
Размер файла : 2.17 GiB
Продолжительность : 1 h 44 min
Общий поток : 2 963 kb/s
Дата кодирования : UTC 2018-10-16 18:29:00
Программа кодирования : mkvmerge v9.5.0 ('Quiet Fire') 64bit
Библиотека кодирования : libebml v1.3.4 + libmatroska v1.4.5

Video
Идентификатор : 1
Формат : AVC
Формат/Информация : Advanced Video Codec
Профиль формата :
Настройки формата : CABAC / 12 Ref Frames
Параметр CABAC формата : Yes
Параметр RefFrames формата : 12 frames
Идентификатор кодека : V_MPEG4/ISO/AVC
Продолжительность : 1 h 44 min
Битрейт : 1 940 kb/s
Ширина : 1 024 pixels
Высота : 428 pixels
Соотношение сторон : 2.40:1
Режим частоты кадров : Constant
Частота кадров : 23.976 (24000/1001) FPS
Цветовое пространство : YUV
Субдискретизация насыщенности : 4:2:0
Битовая глубина : 8 bits
Тип развёртки : Progressive
Бит/(Пиксели*Кадры) : 0.185
Размер потока : 1.42 GiB (65%)
Библиотека кодирования : x264 core 155 r2901M 7d0ff22
Настройки программы : cabac=1 / ref=12 / deblock=1:-3:-3 / analyse=0x3:0x133 / me=umh / subme=11 / psy=1 / psy_rd=1.00:0.00 / mixed_ref=1 / me_range=48 / chroma_me=1 / trellis=2 / 8x8dct=1 / cqm=0 / deadzone=21,11 / fast_pskip=0 / chroma_qp_offset=-2 / threads=9 / lookahead_threads=2 / sliced_threads=0 / nr=0 / decimate=0 / interlaced=0 / bluray_compat=0 / constrained_intra=0 / bframes=10 / b_pyramid=2 / b_adapt=2 / b_bias=0 / direct=3 / weightb=1 / open_gop=0 / weightp=2 / keyint=240 / keyint_min=24 / scenecut=40 / intra_refresh=0 / rc_lookahead=120 / rc=2pass / mbtree=0 / bitrate=1940 / ratetol=1.0 / qcomp=0.70 / qpmin=0 / qpmax=69 / qpstep=4 / cplxblur=20.0 / qblur=0.5 / vbv_maxrate=50000 / vbv_bufsize=62500 / nal_hrd=none / filler=0 / ip_ratio=1.40 / pb_ratio=1.30 / aq=1:1.00
Язык : English
Default : Yes
Forced : No

Audio #1
Идентификатор : 2
Формат : AC-3
Формат/Информация : Audio Coding 3
Идентификатор кодека : A_AC3
Продолжительность : 1 h 44 min
Вид битрейта : Constant
Битрейт : 384 kb/s
Каналы : 6 channels
Расположение каналов : Front: L C R, Side: L R, LFE
Частота : 48.0 kHz
Частота кадров : 31.250 FPS (1536 SPF)
Битовая глубина : 16 bits
Метод сжатия : Lossy
Размер потока : 287 MiB (13%)
Язык : Russian
Default : Yes
Forced : No

Audio #2
Идентификатор : 3
Формат : AC-3
Формат/Информация : Audio Coding 3
Идентификатор кодека : A_AC3
Продолжительность : 1 h 44 min
Вид битрейта : Constant
Битрейт : 640 kb/s
Каналы : 6 channels
Расположение каналов : Front: L C R, Side: L R, LFE
Частота : 48.0 kHz
Частота кадров : 31.250 FPS (1536 SPF)
Битовая глубина : 16 bits
Метод сжатия : Lossy
Размер потока : 480 MiB (22%)
Язык : Japanese
Default : No
Forced : No

Text #1
Идентификатор : 4
Формат : UTF-8
Идентификатор кодека : S_TEXT/UTF8
Идентификатор кодека/Информация : UTF-8 Plain Text
Продолжительность : 1 h 40 min
Битрейт : 82 b/s
ElementCount : 1242
Размер потока : 60.5 KiB (0%)
Язык : Russian
Default : No
Forced : No

Text #2
Идентификатор : 5
Формат : UTF-8
Идентификатор кодека : S_TEXT/UTF8
Идентификатор кодека/Информация : UTF-8 Plain Text
Продолжительность : 1 h 43 min
Битрейт : 43 b/s
ElementCount : 1243
Размер потока : 32.7 KiB (0%)
Язык : English
Default : No
Forced : No

Menu
00:00:00.000 : :Chapter 01
00:09:15.513 : :Chapter 02
00:15:54.828 : :Chapter 03
00:23:08.136 : :Chapter 04
00:28:13.775 : :Chapter 05
00:37:24.825 : :Chapter 06
00:49:30.217 : :Chapter 07
01:02:35.501 : :Chapter 08
01:11:54.101 : :Chapter 09
01:21:39.436 : :Chapter 10
01:35:38.899 : :Chapter 11
01:40:12.256 : :Chapter 12












   Похожие торренты   Торрент   Размер 
В этой теме нет новых непрочитанных сообщений. Последний беспредел / Беспредел: Последняя глава / Autoreiji saishusho / Outrage Coda (Такеши Китано) [2017, драма, криминал, BDRip] MVO

15 | 0

745.7 МБ

В этой теме нет новых непрочитанных сообщений. Последний беспредел / Беспредел: Последняя глава / Autoreiji saishusho / Outrage Coda (Такеши Китано) [2017, драма, криминал, BDRip] MVO

44 | 0

1.45 ГБ

В этой теме нет новых непрочитанных сообщений. Беспредел: Последняя глава / Outrage Coda / Autoreiji saishusho (Такеши Китано) [2017, драма, криминал, HDRip] DVO

27 | 0

1.37 ГБ

В этой теме нет новых непрочитанных сообщений. Жестокий полицейский / Sono otoko, kyobo ni tsuki / Violent cop (Такеши Китано) [1989, боевик, триллер, драма, криминал, HDRip] DVO

4 | 1

1.45 ГБ

В этой теме нет новых непрочитанных сообщений. Родительский беспредел / Parental Guidance (2012) BDRip-AVC

1 | 3

1.77 ГБ

В этой теме нет новых непрочитанных сообщений. Последний контракт Халли / Khali the Killer (Джон Мэттьюс) [2017, драма, криминал, BDRip] MVO

3 | 0

1.46 ГБ

В этой теме нет новых непрочитанных сообщений. Родительский беспредел / Parental Guidance (2012) BDRip 720p от Leonardo and Scarabey

1 | 2

6.62 ГБ




Вы не можете начинать темы
Вы не можете отвечать на сообщения
Вы не можете редактировать свои сообщения
Вы не можете удалять свои сообщения
Вы не можете добавлять вложения

Перейти:  
 Вход
ppkBB3cker v.2 © 2008-2014 @ PPK
[ Time : 0.033s | 17 Queries | GZIP : Off ]

cron