img image001 image001 image001 image001 image001 image001 image001 image001 image001 image001 image001 image001 image001 image001 image001 image001

Planets Sun Sun Sun
Статистика раздачи
Автор: Снежана | Размер: 3.4 ГБ | Добавлен: 17 окт 2018
Раздают: 8    Качают: 1
Скачать торрент
Скачать торрент
Описание торрента

СообщениеДобавлено: 17 окт 2018 

Проклятый путь / Road to Perdition

Перевод: Профессиональный (полное дублирование)
Субтитры: Русские, украинские, английские
Формат: WEB-DLRip-AVC, MKV, H.264, AC3
Страна: CША
Режиссер: Сэм Мендес
Жанр: триллер, драма, криминал
Продолжительность: 01:57:10
Год выпуска: 2002

В ролях: Том Хэнкс, Пол Ньюман, Джуд Лоу, Дженнифер Джейсон Ли, Стенли Туччи, Дэниэл Крэйг, Тайлер Хёхлин, Лиам Эйкен, Киаран Хиндс, Дилан Бейкер

Описание: Чикаго времен Великой депрессии. Два сына — Майкл Салливан-младший и Коннор Руни отчаянно стараются завоевать расположение своих отцов — Майкла Салливана-старшего, гангстера из ирландского клана, и Джона Руни, босса Салливана-старшего, заменившего ему отца. Ревность и соперничество толкают их всех на гибельный путь.
Семья Салливана-старшего становится жертвой страшной «профессии» главы семейства. Погибают его любимая жена и младший сын Питер. Месть и трагедия становятся постоянными спутниками Майкла и его оставшегося в живых сына.




Видео: 1024x576 (16:9), 23.976 fps, AVC MPEG-4 (H.264), ~2237 kbps, 0.158 bit/pixel
Аудио #1: Русский: 48 kHz, AC3 Dolby Digital, 6 ch, ~448 kbps [Профессиональный (полное дублирование)]
Аудио #2: Русский: 48 kHz, AC3 Dolby Digital, 6 ch, ~384 kbps [Профессиональный (многоголосый, закадровый)]
Аудио #3: Украинский: 48 kHz, AC3 Dolby Digital, 6 ch, ~448 kbps [Профессиональный (двухголосый)]
Аудио #4: Английский: 48 kHz, AC3 Dolby Digital, 6 ch, ~640 kbps [Оригинал] Amazon

Format : Matroska
Format version : Version 4
File size : 3.40 GiB
Duration : 1 h 57 min
Overall bit rate : 4 159 kb/s
Movie name : Проклятый путь
Encoded date : UTC 2018-09-20 15:37:55
Writing application : mkvmerge v25.0.0 ('Prog Noir') 64-bit
Writing library : libebml v1.3.6 + libmatroska v1.4.9
Attachments : poster.jpg

Video
ID : 1
Format : AVC
Format/Info : Advanced Video Codec
Format profile :
Format settings : CABAC / 10 Ref Frames
Format settings, CABAC : Yes
Format settings, ReFrames : 10 frames
Codec ID : V_MPEG4/ISO/AVC
Duration : 1 h 57 min
Bit rate : 2 237 kb/s
Width : 1 024 pixels
Height : 576 pixels
Display aspect ratio : 16:9
Frame rate mode : Constant
Frame rate : 23.976 (24000/1001) FPS
Color space : YUV
Chroma subsampling : 4:2:0
Bit depth : 8 bits
Scan type : Progressive
Bits/(Pixel*Frame) : 0.158
Stream size : 1.83 GiB (54%)
Title : RIP_BY_-=DoMiNo=-
Writing library : x264 core 155 r2901M 7d0ff22
Encoding settings : cabac=1 / ref=10 / deblock=1:-3:-3 / analyse=0x3:0x133 / me=umh / subme=10 / psy=1 / psy_rd=1.00:0.10 / mixed_ref=1 / me_range=32 / chroma_me=1 / trellis=2 / 8x8dct=1 / cqm=0 / deadzone=21,11 / fast_pskip=1 / chroma_qp_offset=-3 / threads=6 / lookahead_threads=1 / sliced_threads=0 / nr=0 / decimate=1 / interlaced=0 / bluray_compat=0 / constrained_intra=0 / bframes=10 / b_pyramid=2 / b_adapt=2 / b_bias=0 / direct=1 / weightb=1 / open_gop=0 / weightp=2 / keyint=240 / keyint_min=24 / scenecut=40 / intra_refresh=0 / rc=crf / mbtree=0 / crf=19.0 / qcomp=0.60 / qpmin=0 / qpmax=69 / qpstep=4 / ip_ratio=1.40 / pb_ratio=1.30 / aq=1:1.00
Language : English
Default : Yes
Forced : No
Color range : Limited
Color primaries : BT.709
Transfer characteristics : BT.709
Matrix coefficients : BT.709

Audio #1
ID : 2
Format : AC-3
Format/Info : Audio Coding 3
Commercial name : Dolby Digital
Codec ID : A_AC3
Duration : 1 h 57 min
Bit rate mode : Constant
Bit rate : 448 kb/s
Channel(s) : 6 channels
Channel layout : L R C LFE Ls Rs
Sampling rate : 48.0 kHz
Frame rate : 31.250 FPS (1536 SPF)
Bit depth : 16 bits
Compression mode : Lossy
Stream size : 375 MiB (11%)
Title : DUB - Blu-ray CEE
Language : Russian
Service kind : Complete Main
Default : Yes
Forced : No

Audio #2
ID : 3
Format : AC-3
Format/Info : Audio Coding 3
Commercial name : Dolby Digital
Codec ID : A_AC3
Duration : 1 h 56 min
Bit rate mode : Constant
Bit rate : 384 kb/s
Channel(s) : 6 channels
Channel layout : L R C LFE Ls Rs
Sampling rate : 48.0 kHz
Frame rate : 31.250 FPS (1536 SPF)
Bit depth : 16 bits
Compression mode : Lossy
Delay relative to video : 8 s 0 ms
Stream size : 321 MiB (9%)
Title : MVO - R1
Language : Russian
Service kind : Complete Main
Default : No
Forced : No

Audio #3
ID : 4
Format : AC-3
Format/Info : Audio Coding 3
Commercial name : Dolby Digital
Codec ID : A_AC3
Duration : 1 h 56 min
Bit rate mode : Constant
Bit rate : 448 kb/s
Channel(s) : 6 channels
Channel layout : L R C LFE Ls Rs
Sampling rate : 48.0 kHz
Frame rate : 31.250 FPS (1536 SPF)
Bit depth : 16 bits
Compression mode : Lossy
Delay relative to video : 8 s 0 ms
Stream size : 375 MiB (11%)
Title : DVO - Украинский "2+2"
Language : Ukrainian
Service kind : Complete Main
Default : No
Forced : No

Audio #4
ID : 5
Format : E-AC-3
Format/Info : Enhanced AC-3
Commercial name : Dolby Digital Plus
Codec ID : A_EAC3
Duration : 1 h 57 min
Bit rate mode : Constant
Bit rate : 640 kb/s
Channel(s) : 6 channels
Channel layout : L R C LFE Ls Rs
Sampling rate : 48.0 kHz
Frame rate : 31.250 FPS (1536 SPF)
Compression mode : Lossy
Stream size : 536 MiB (15%)
Title : English - Amazon
Language : English
Service kind : Complete Main
Default : No
Forced : No

Text #1
ID : 6
Format : UTF-8
Codec ID : S_TEXT/UTF8
Codec ID/Info : UTF-8 Plain Text
Duration : 1 h 51 min
Bit rate : 0 b/s
Count of elements : 6
Stream size : 303 Bytes (0%)
Title : Russian Forced
Language : Russian
Default : Yes
Forced : Yes

Text #2
ID : 7
Format : UTF-8
Codec ID : S_TEXT/UTF8
Codec ID/Info : UTF-8 Plain Text
Duration : 1 h 50 min
Bit rate : 51 b/s
Count of elements : 785
Stream size : 41.6 KiB (0%)
Title : Russian Full
Language : Russian
Default : No
Forced : No

Text #3
ID : 8
Format : UTF-8
Codec ID : S_TEXT/UTF8
Codec ID/Info : UTF-8 Plain Text
Duration : 1 h 50 min
Bit rate : 47 b/s
Count of elements : 744
Stream size : 38.4 KiB (0%)
Title : Ukrainian Full
Language : Ukrainian
Default : No
Forced : No

Text #4
ID : 9
Format : UTF-8
Codec ID : S_TEXT/UTF8
Codec ID/Info : UTF-8 Plain Text
Duration : 1 h 50 min
Bit rate : 27 b/s
Count of elements : 733
Stream size : 22.6 KiB (0%)
Title : English Full
Language : English
Default : No
Forced : No

Text #5
ID : 10
Format : UTF-8
Codec ID : S_TEXT/UTF8
Codec ID/Info : UTF-8 Plain Text
Duration : 1 h 52 min
Bit rate : 36 b/s
Count of elements : 1194
Stream size : 29.7 KiB (0%)
Title : English Full SDH
Language : English
Default : No
Forced : No

Menu
00:00:00.000 : :Глава 1
00:09:15.805 : :Глава 2
00:18:50.379 : :Глава 3
00:28:06.768 : :Глава 4
00:37:36.004 : :Глава 5
00:47:09.827 : :Глава 6
00:56:30.971 : :Глава 7
01:05:54.117 : :Глава 8
01:15:21.433 : :Глава 9
01:24:46.873 : :Глава 10
01:34:38.339 : :Глава 11
01:43:34.583 : :Глава 12
01:52:34.581 : :Глава 13












   Похожие торренты   Торрент   Размер 
В этой теме нет новых непрочитанных сообщений. Проклятый путь / Road to Perdition (Сэм Мендес) [Open Matte] [2002, триллер, драма, криминал, WEB-DLRip-AVC] DUB

20 | 1

744.92 МБ

В этой теме нет новых непрочитанных сообщений. Проклятый путь / Road to Perdition (Сэм Мендес) [2002, триллер, драма, криминал, BDRip-AVC] DUB+AVO

1 | 0

2.57 ГБ

В этой теме нет новых непрочитанных сообщений. Проклятый путь / Road to Perdition (2002) BDRip 1080p

4 | 4

4.28 ГБ

В этой теме нет новых непрочитанных сообщений. Проклятый путь / Road to Perdition (2002) BDRip 720p

1654 | 85

6.97 ГБ

В этой теме нет новых непрочитанных сообщений. Проклятый путь / Road to Perdition (2002) BDRip 720p | USA Transfer New | A

182 | 20

4.37 ГБ

В этой теме нет новых непрочитанных сообщений. Гнев / Man on Fire (Тони Скотт) [Open Matte] [2004, боевик, триллер, драма, криминал, WEB-DLRip] DUB / Боевики /Action

22 | 1

1.45 ГБ

В этой теме нет новых непрочитанных сообщений. Гнев / Man on Fire (Тони Скотт) [Open Matte] [2004, боевик, триллер, драма, криминал, WEB-DLRip] DUB / Боевики /Action

4 | 0

2.18 ГБ




Вы не можете начинать темы
Вы не можете отвечать на сообщения
Вы не можете редактировать свои сообщения
Вы не можете удалять свои сообщения
Вы не можете добавлять вложения

Перейти:  
 Вход
ppkBB3cker v.2 © 2008-2014 @ PPK
[ Time : 0.040s | 15 Queries | GZIP : Off ]

cron