img image001 image001 image001 image001 image001 image001 image001 image001 image001 image001 image001 image001 image001 image001 image001 image001

Planets Sun Sun Sun
Статистика раздачи
Автор: Снежана | Размер: 10.17 ГБ | Добавлен: 18 окт 2018
Раздают: 0    Качают: 1
Скачать торрент
Скачать торрент
Описание торрента

СообщениеДобавлено: 18 окт 2018 

Бонус (1-7 серии из 16)

Перевод: Не требуется, cубтитры: отсутствуют
Формат: WEBRip 1080p, MKV, H.264, AC3
Страна: Россия
Режиссер: Валерия Гай Германика
Жанр: драма, музыка
Всего серий: 16
Продолжительность: 7 х ~ 00:41:00
Год выпуска: 2018

В ролях: Александр Сударев, Лана Райдер, Артем Сучков, Дмитрий Смирнов (IV), Антон Адасинский, Алексей Литвиненко (II), Юлия Ауг, Александр Усердин, Леонид Громов, Лариса Баранова (II), Евгения Храповицкая, Игорь Верник, Агния Дитковските, Сергей Пахомов, Павел Комаров (II), Варвара Назарова, Валерий Полиенко, Светлана Лимпер, Григорий Чабан, Евгений Смирнов-Иваницкий, Александр Логинов (III), Денис Фартовый, Екатерина Васильева (V)

Описание: Юный рэпер из провинции по прозвищу Бонус отправляется покорять столицу, где влюбляется в дочь известного бизнесмена. Но Москва слезам и рифмам не верит: вместе с первыми выступлениями Бонусу предстоит пережить несчастную любовь, конфликты с отцом девушки, взлеты и падения на фоне столичной рэп-тусовки.
«...И плевать, что будет потом»

Рейтинг и доп. информация:


Видео: 1920x1080 (16:9), 25 fps, AVC MPEG-4 (x264), Baseline@L4 ~ 5000 kbps , 0.096 bit/pixel
Аудио: 48 kHz, AC3, 2/0 (L,R) ch, ~192 kbps
Внимание! Раздача ведётся путём добавления новых серий. При каждом добавлении создаётся новый торрент.
Чтобы начать докачку новой серии, пользователям необходимо сделать следующее:
1. Остановить скачивание.
2. Удалить старый торрент у себя из клиента (старые серии удалять не надо).
3. Скачать новый торрент и запустить его у себя в клиенте вместо старого, при этом указать клиенту путь в старую папку куда и должно происходить скачивание новых серий. Ваш клиент при этом должен произвести хеширование (проверку) старой папки и будет докачивать только те серии, которых у вас ещё нет. Старые серии при этом не удаляются, а продолжают раздаваться! Eсли вы уже удалили старые серии, то предотвратить повторную закачку старых серий можно, отжав галочку в соответствующих местах при запуске нового торрента.


Общее
Уникальный идентификатор : 241895510819363744426428849976995512142 (0xB5FB617A244CD5E1B96B794ABD287F4E)
Полное имя : C:\Bonus.2018.WEB-DL.(1080p).Getty\Bonus.e01.2018.WEB-DL.(1080p).Getty.mkv
Формат : Matroska
Версия формата : Version 4
Размер файла : 1,27 Гбайт
Продолжительность : 35 м. 34 с.
Режим общего битрейта : Постоянный
Общий поток : 5123 Кбит/сек
Название фильма : Bonus.e01.2018.WEB-DL.(1080p).Getty
Дата кодирования : UTC 2018-09-19 20:35:06
Программа кодирования : mkvmerge v7.8.0 ('River Man') 32bit built on Mar 27 2015 16:18:02
Библиотека кодирования : libebml v1.3.1 + libmatroska v1.4.2

Видео
Идентификатор : 1
Формат : AVC
Формат/Информация : Advanced Video Codec
Профиль формата : Baseline@L4
Настройки формата : 4 Ref Frames
Параметр CABAC формата : Нет
Параметр RefFrames формата : 4 кадра
Идентификатор кодека : V_MPEG4/ISO/AVC
Продолжительность : 35 м. 34 с.
Вид битрейта : Постоянный
Битрейт : 5000 Кбит/сек
Ширина : 1920 пикселей
Высота : 1080 пикселей
Соотношение сторон : 16:9
Режим частоты кадров : Постоянный
Частота кадров : 25,000 кадров/сек
Стандарт вещания : PAL
Цветовое пространство : YUV
Субдискретизация насыщенности : 4:2:0
Битовая глубина : 8 бит
Тип развёртки : Прогрессивная
Бит/(Пиксели*Кадры) : 0.096
Размер потока : 1,20 Гбайт (94%)
Default : Да
Forced : Нет
Цветовой диапазон : Limited
Основные цвета : BT.709
Характеристики трансфера : BT.709
Коэффициенты матрицы : BT.709

Аудио
Идентификатор : 2
Формат : AC-3
Формат/Информация : Audio Coding 3
Коммерческое название : Dolby Digital
Идентификатор кодека : A_AC3
Продолжительность : 35 м. 34 с.
Вид битрейта : Постоянный
Битрейт : 192 Кбит/сек
Каналы : 2 канала
Channel layout : L R
Частота : 48,0 КГц
Частота кадров : 31,250 кадров/сек (1536 SPF)
Битовая глубина : 16 бит
Метод сжатия : С потерями
Размер потока : 48,8 Мбайт (4%)
ServiceKind/String : Complete Main
Default : Да
Forced : Нет








   Похожие торренты   Торрент   Размер 
В этой теме нет новых непрочитанных сообщений. Бонус (1-5 серии из 16) (Валерия Гай Германика) [2018, драма, музыка, WEBRip 1080p]

2 | 4

7.15 ГБ

В этой теме нет новых непрочитанных сообщений. Бонус (1-10 серии из 16) (Валерия Гай Германика) [2018, драма, музыка, WEBRip 1080p]

0 | 1

14.98 ГБ

В этой теме нет новых непрочитанных сообщений. Бонус (1-8 серии из 16) (Валерия Гай Германика) [2018, драма, музыка, WEBRip 1080p]

2 | 2

11.86 ГБ

В этой теме нет новых непрочитанных сообщений. Бонус (1-4 серии из 16) (Валерия Гай Германика) [2018, драма, музыка, WEBRip 1080p]

0 | 3

5.52 ГБ

В этой теме нет новых непрочитанных сообщений. Бонус (1-9 серии из 16) (Валерия Гай Германика) [2018, драма, музыка, WEBRip 1080p]

4 | 2

13.38 ГБ

В этой теме нет новых непрочитанных сообщений. Бонус (1-11 серии из 16) (Валерия Гай Германика) [2018, драма, музыка, WEBRip 1080p]

0 | 1

16.26 ГБ

В этой теме нет новых непрочитанных сообщений. Бонус (1-6 серии из 16) (Валерия Гай Германика) [2018, драма, музыка, WEBRip-AVC]

7 | 11

3.07 ГБ




Вы не можете начинать темы
Вы не можете отвечать на сообщения
Вы не можете редактировать свои сообщения
Вы не можете удалять свои сообщения
Вы не можете добавлять вложения

Перейти:  
 Вход
ppkBB3cker v.2 © 2008-2014 @ PPK
[ Time : 0.028s | 18 Queries | GZIP : Off ]

cron