img image001 image001 image001 image001 image001 image001 image001 image001 image001 image001 image001 image001 image001 image001 image001 image001

Planets Sun Sun Sun
Статистика раздачи
Автор: Снежана | Размер: 26.93 ГБ | Добавлен: 19 окт 2018
Раздают: 6    Качают: 3
Скачать торрент
Скачать торрент
Описание торрента

СообщениеДобавлено: 19 окт 2018 

Ласточка (1-12 серии из 16)

Перевод: Не требуется, cубтитры: отсутствуют
Формат: HDTV 1080p, MKV, H.264, AC3
Страна: Россия
Режиссер: Денис Карро
Жанр: мелодрама
Всего серий: 16
Продолжительность: 12 х ~ 00:42:30
Год выпуска: 2018

В ролях: Екатерина Редникова, Илья Носков, Александр Волков, Софья Озерова, Константин Белошапка, Александр Дуденков, Ольга Фадеева, Елена Цыплакова, Михаил Химичев, Пётр Баранчеев, Наталья Рыжих, Данил Акутин, Дарья Ленда, Наталья Рычкова, Виктор Кондрашов, Николай Ковбас, Наталья Земцова, Анастасия Добрынина, Елена Кибалова, Полина Федина, Дмитрий Кондрашов, Ирина Лукина (II), Данил Акунин

Описание: Отсидев в тюрьме за убийство подруги, которого не совершала, потеряв в тюрьме ребенка и лишившись матери, она возвращается в родной поселок, чтобы найти настоящего убийцу и отомстить… Нет больше Ласточки – юной и наивной Аси Волковой (Екатерина Редникова), невинно осужденной 15 лет назад. Годы колонии превратили ее в Алину Воронову – холодную, одержимую местью женщину. Теперь у нее есть деньги, связи и моральное право уничтожить всех, кто сломал ей жизнь. Алина готова калечить жизни и рушить судьбы своих врагов! Ведь ее предали самые близкие люди – те, кого она любила и кого считала друзьями… Алина начинает собственное расследование. Ей помогают подруга Зара Савина (Ольга Фадеева) и журналист Павел Самохин (Илья Носков). Вскоре они приходят к поразительным выводам, которые меняют все. С каждым новым шагом план отмщения рассыпается, пробуждаются забытые чувства, а жажда расплаты остывает. Но жестокое колесо мести уже запущено и его жернова перемалывают всех – виновных, невиновных и… ее саму…

Рейтинг и доп. информация:


Видео: 1920x1080 (16:9), 25 fps, AVC MPEG-4 (x264), ~ 7050 kbps , 0.136 bit/pixel
Аудио: 48 kHz, АС3, 2/0 (L,R), ~192.00 kbps avg

Доп. инфо: Запись с канала Россия HD
Внимание! Раздача ведётся путём добавления новых серий. При каждом добавлении создаётся новый торрент.
Чтобы начать докачку новой серии, пользователям необходимо сделать следующее:
1. Остановить скачивание.
2. Удалить старый торрент у себя из клиента (старые серии удалять не надо).
3. Скачать новый торрент и запустить его у себя в клиенте вместо старого, при этом указать клиенту путь в старую папку куда и должно происходить скачивание новых серий. Ваш клиент при этом должен произвести хеширование (проверку) старой папки и будет докачивать только те серии, которых у вас ещё нет. Старые серии при этом не удаляются, а продолжают раздаваться! Eсли вы уже удалили старые серии, то предотвратить повторную закачку старых серий можно, отжав галочку в соответствующих местах при запуске нового торрента.


General
Unique ID : 216750122606979284814313745402204998640 (0xA3108E1ED2F8FA039A05EBE38CCF4BF0)
Complete name : E:Запись с твLastochka 2018.HDTV 1080p.R.G.GeneralfilmLastochka.s01.e01.2018.HDTV 1080p.by.White Smoke.R.G.Generalfilm.mkv
Format : Matroska
Format version : Version 4 / Version 2
File size : 2.15 GiB
Duration : 42 min
Overall bit rate mode : Constant
Overall bit rate : 7 230 kb/s
Movie name : Lastochka.s01.e01.2018.HDTV 1080p.by.White Smoke.R.G.Generalfilm.mkv
Encoded date : UTC 2018-10-16 01:32:04
Writing application : mkvmerge v6.8.0 ('Theme for Great Cities') 64bit built on Mar 2 2014 21:34:26
Writing library : libebml v1.3.0 + libmatroska v1.4.1
Cover : Yes
Attachments : cover.jpg

Video
ID : 1
Format : AVC
Format/Info : Advanced Video Codec
Format profile :
Format settings, CABAC : Yes
Format settings, ReFrames : 3 frames
Codec ID : V_MPEG4/ISO/AVC
Duration : 42 min
Bit rate mode : Constant
Bit rate : 7 050 kb/s
Width : 1 920 pixels
Height : 1 080 pixels
Display aspect ratio : 16:9
Frame rate mode : Constant
Frame rate : 25.000 FPS
Standard : PAL
Color space : YUV
Chroma subsampling : 4:2:0
Bit depth : 8 bits
Scan type : Progressive
Bits/(Pixel*Frame) : 0.136
Stream size : 2.05 GiB (95%)
Default : Yes
Forced : No
Color range : Limited
Color primaries : BT.709
Transfer characteristics : BT.709
Matrix coefficients : BT.709

Audio
ID : 2
Format : AC-3
Format/Info : Audio Coding 3
Mode extension : CM (complete main)
Format settings, Endianness : Big
Codec ID : A_AC3
Duration : 42 min
Bit rate mode : Constant
Bit rate : 192 kb/s
Channel(s) : 2 channels
Channel positions : Front: L R
Sampling rate : 48.0 kHz
Frame rate : 31.250 FPS (1536 spf)
Compression mode : Lossy
Stream size : 58.4 MiB (3%)
Default : Yes
Forced : No










   Похожие торренты   Торрент   Размер 
В этой теме нет новых непрочитанных сообщений. Ласточка (1-9 серии из 16) (Денис Карро) [2018, мелодрама, HDTV 1080p]

5 | 3

20.21 ГБ

В этой теме нет новых непрочитанных сообщений. Ласточка (1-3 серии из 16) (Денис Карро) [2018, мелодрама, HDTV 1080p]

0 | 0

6.72 ГБ

В этой теме нет новых непрочитанных сообщений. Ласточка (1-14 серии из 16) (Денис Карро) [2018, мелодрама, HDTV 1080p]

8 | 9

37.3 ГБ

В этой теме нет новых непрочитанных сообщений. Ласточка (1-6 серии из 16) (Денис Карро) [2018, мелодрама, HDTV 1080p]

0 | 0

13.46 ГБ

В этой теме нет новых непрочитанных сообщений. Ласточка (1-3 серии из 16) (Денис Карро) [2018, мелодрама, HDTVRip-AVC]

23 | 2

2.08 ГБ

В этой теме нет новых непрочитанных сообщений. Ласточка (1-9 серии из 16) (Денис Карро) [2018, мелодрама, HDTVRip-AVC]

19 | 7

6.11 ГБ

В этой теме нет новых непрочитанных сообщений. Ласточка (1-12 серии из 16) (Денис Карро) [2018, мелодрама, HDTVRip-AVC]

25 | 19

8.15 ГБ




Вы не можете начинать темы
Вы не можете отвечать на сообщения
Вы не можете редактировать свои сообщения
Вы не можете удалять свои сообщения
Вы не можете добавлять вложения

Перейти:  
 Вход
ppkBB3cker v.2 © 2008-2014 @ PPK
[ Time : 0.027s | 16 Queries | GZIP : Off ]

cron