img image001 image001 image001 image001 image001 image001 image001 image001 image001 image001 image001 image001 image001 image001 image001 image001

Planets Sun Sun Sun
Статистика раздачи
Автор: Снежана | Размер: 2.12 ГБ | Добавлен: 19 окт 2018
Раздают: 17    Качают: 3
Скачать торрент
Скачать торрент
Описание торрента

СообщениеДобавлено: 19 окт 2018 

Mamma Mia! 2 / Mamma Mia! Here We Go Again


Перевод: Профессиональный (полное дублирование) iTunes
Субтитры: Русские, английские
Формат: BDRip-AVC, MKV, H.264, AC3
Страна: Великобритания, США
Режиссер: Ол Паркер
Жанр: мюзикл, мелодрама, комедия
Продолжительность: 01:53:39
Год выпуска: 2018

В ролях: Аманда Сайфред, Мэрил Стрип, Лили Джеймс, Доминик Купер, Шер, Пирс Броснан, Колин Фёрт, Энди Гарсиа, Стеллан Скарсгард, Джули Уолтерс, Джереми Ирвин, Кристин Барански, Селия Имри

Описание: Сбежать на райский греческий остров, чтобы гулять по улочкам очаровательного города, наслаждаться местной кухней, танцевать до утра, кататься на яхте и влюбиться без памяти — что может быть лучше? Звучит, как идеальный план на лето… да и на всю жизнь тоже.



Видео: 1024x426p (2.40:1), 23.976 fps, AVC MPEG-4 (H.264), ~1837 kbps, 0.176 bit/pixel
Аудио #1: Русский: 48 kHz, AC3 Dolby Digital, 6 ch, ~384 kbps [Профессиональный (полное дублирование)]
Аудио #2: Английский: 48 kHz, AC3 Dolby Digital, 6 ch, ~448 kbps [Оригинал]

Формат : Matroska
Версия формата : Version 4 / Version 2
Размер файла : 2,12 Гбайт
Продолжительность : 1 ч. 53 м.
Общий поток : 2671 Кбит/сек
Название фильма : Mamma.Mia.Here.We.Go.Again.2018 #TorpedoUK#
Дата кодирования : UTC 2018-10-19 12:44:20
Программа кодирования : mkvmerge v25.0.0 ('Prog Noir') 64-bit
Библиотека кодирования : libebml v1.3.6 + libmatroska v1.4.9

Видео
Идентификатор : 1
Формат : AVC
Формат/Информация : Advanced Video Codec
Профиль формата :
Параметр CABAC формата : Да
Параметр ReFrames формата : 10 кадров
Идентификатор кодека : V_MPEG4/ISO/AVC
Продолжительность : 1 ч. 53 м.
Битрейт : 1837 Кбит/сек
Ширина : 1024 пикселя
Высота : 426 пикселей
Соотношение сторон : 2,40:1
Режим частоты кадров : Постоянный
Частота кадров : 23,976 (24000/1001) кадра/сек
Цветовое пространство : YUV
Субдискретизация насыщенности : 4:2:0
Битовая глубина : 8 бит
Тип развёртки : Прогрессивная
Бит/(Пиксели*Кадры) : 0.176
Размер потока : 1,46 Гбайт (69%)
Библиотека кодирования : x264 core 146 r2538 121396c
Настройки программы : cabac=1 / ref=10 / deblock=1:-3:-3 / analyse=0x3:0x113 / me=umh / subme=11 / psy=1 / psy_rd=0.99:0.04 / mixed_ref=1 / me_range=48 / chroma_me=1 / trellis=2 / 8x8dct=1 / cqm=0 / deadzone=21,11 / fast_pskip=1 / chroma_qp_offset=-3 / threads=6 / lookahead_threads=1 / sliced_threads=0 / nr=0 / decimate=1 / interlaced=0 / bluray_compat=0 / constrained_intra=0 / bframes=10 / b_pyramid=2 / b_adapt=2 / b_bias=0 / direct=3 / weightb=1 / open_gop=0 / weightp=2 / keyint=240 / keyint_min=23 / scenecut=40 / intra_refresh=0 / rc_lookahead=40 / rc=2pass / mbtree=0 / bitrate=1837 / ratetol=1.0 / qcomp=0.60 / qpmin=0 / qpmax=69 / qpstep=4 / cplxblur=20.0 / qblur=0.5 / vbv_maxrate=50000 / vbv_bufsize=62500 / nal_hrd=none / filler=0 / ip_ratio=1.40 / pb_ratio=1.30 / aq=1:1.00
Язык : English
Default : Да
Forced : Нет

Аудио #1
Идентификатор : 2
Формат : AC-3
Формат/Информация : Audio Coding 3
Расширение режима : CM (complete main)
Параметр Endianness формата : Big
Идентификатор кодека : A_AC3
Продолжительность : 1 ч. 53 м.
Вид битрейта : Постоянный
Битрейт : 384 Кбит/сек
Каналы : 6 каналов
Расположение каналов : Front: L C R, Side: L R, LFE
Частота : 48,0 КГц
Частота кадров : 31,250 кадров/сек (1536 spf)
Битовая глубина : 16 бит
Метод сжатия : С потерями
Размер потока : 312 Мбайт (14%)
Заголовок : DUB [iTunes]
Язык : Russian
Default : Да
Forced : Нет

Аудио #2
Идентификатор : 3
Формат : AC-3
Формат/Информация : Audio Coding 3
Расширение режима : CM (complete main)
Параметр Endianness формата : Big
Идентификатор кодека : A_AC3
Продолжительность : 1 ч. 53 м.
Вид битрейта : Постоянный
Битрейт : 448 Кбит/сек
Каналы : 6 каналов
Расположение каналов : Front: L C R, Side: L R, LFE
Частота : 48,0 КГц
Частота кадров : 31,250 кадров/сек (1536 spf)
Битовая глубина : 16 бит
Метод сжатия : С потерями
Размер потока : 364 Мбайт (17%)
Заголовок : [Original]
Язык : English
Default : Нет
Forced : Нет

Текст #1
Идентификатор : 4
Формат : UTF-8
Идентификатор кодека : S_TEXT/UTF8
Идентификатор кодека/Информация : UTF-8 Plain Text
Продолжительность : 1 ч. 51 м.
Битрейт : 34 бит/сек
Count of elements : 549
Размер потока : 28,4 Кбайт (0%)
Заголовок : Forced
Язык : Russian
Default : Да
Forced : Нет

Текст #2
Идентификатор : 5
Формат : UTF-8
Идентификатор кодека : S_TEXT/UTF8
Идентификатор кодека/Информация : UTF-8 Plain Text
Продолжительность : 1 ч. 52 м.
Битрейт : 68 бит/сек
Count of elements : 1987
Размер потока : 56,5 Кбайт (0%)
Заголовок : Full
Язык : English
Default : Нет
Forced : Нет

Текст #3
Идентификатор : 6
Формат : UTF-8
Идентификатор кодека : S_TEXT/UTF8
Идентификатор кодека/Информация : UTF-8 Plain Text
Продолжительность : 1 ч. 52 м.
Битрейт : 75 бит/сек
Count of elements : 2175
Размер потока : 62,4 Кбайт (0%)
Заголовок : SDH
Язык : English
Default : Нет
Forced : Нет

Меню
00:00:00.000 : en:Chapter 1
00:02:59.804 : en:Chapter 2
00:09:08.798 : en:Chapter 3
00:16:41.000 : en:Chapter 4
00:24:23.712 : en:Chapter 5
00:26:55.030 : en:Chapter 6
00:34:58.888 : en:Chapter 7
00:39:13.476 : en:Chapter 8
00:43:47.499 : en:Chapter 9
00:50:27.357 : en:Chapter 10
00:53:26.870 : en:Chapter 11
00:58:31.674 : en:Chapter 12
01:04:52.388 : en:Chapter 13
01:15:11.507 : en:Chapter 14
01:24:53.046 : en:Chapter 15
01:27:04.510 : en:Chapter 16
01:28:58.916 : en:Chapter 17
01:33:01.784 : en:Chapter 18
01:37:19.250 : en:Chapter 19
01:43:09.516 : en:Chapter 20












   Похожие торренты   Торрент   Размер 
В этой теме нет новых непрочитанных сообщений. Mamma Mia! 2 / Mamma Mia! Here We Go Again (Ол Паркер) [2018, мюзикл, мелодрама, комедия, BDRip-AVC] DUB

29 | 8

2.17 ГБ

В этой теме нет новых непрочитанных сообщений. Mamma Mia! 2 / Mamma Mia! Here We Go Again (Ол Паркер) [2018, мюзикл, мелодрама, комедия, BDRip] DUB

42 | 8

1.41 ГБ

В этой теме нет новых непрочитанных сообщений. Mamma Mia! 2 / Mamma Mia! Here We Go Again (Ол Паркер) [2018, мюзикл, мелодрама, комедия, BDRip-AVC] DUB

В этой теме нет новых непрочитанных сообщений. Mamma Mia! 2 / Mamma Mia! Here We Go Again (Ол Паркер) [2018, мюзикл, мелодрама, комедия, BDRip] DUB

35 | 5

1.46 ГБ

В этой теме нет новых непрочитанных сообщений. Mamma Mia! 2 / Mamma Mia! Here We Go Again (Ол Паркер) [2018, Мюзикл, мелодрама, комедия, HDRip] DUB

12 | 5

2.18 ГБ

В этой теме нет новых непрочитанных сообщений. Mamma Mia! 2 / Mamma Mia! Here We Go Again (Ол Паркер) [2018, мюзикл, мелодрама, комедия, HDRip] DUB

43 | 8

1.46 ГБ

В этой теме нет новых непрочитанных сообщений. Mamma Mia! 2 / Mamma Mia! Here We Go Again (Ол Паркер) [2018, мюзикл, мелодрама, комедия, LowHDRip] DUB

16 | 1

745.42 МБ




Вы не можете начинать темы
Вы не можете отвечать на сообщения
Вы не можете редактировать свои сообщения
Вы не можете удалять свои сообщения
Вы не можете добавлять вложения

Перейти:  
 Вход
ppkBB3cker v.2 © 2008-2014 @ PPK
[ Time : 0.774s | 15 Queries | GZIP : Off ]

cron