img image001 image001 image001 image001 image001 image001 image001 image001 image001 image001 image001 image001 image001 image001 image001 image001

Planets Sun Sun Sun
Статистика раздачи
Автор: Снежана | Размер: 83.75 МБ | Добавлен: 22 окт 2018
Раздают: 2    Качают: 0
Скачать торрент
Скачать торрент
Описание торрента

СообщениеДобавлено: 22 окт 2018 

Компьютерные воины: приключения начинаются / Computer Warriors: The Adventure Begins

Перевод: Авторский (одноголосый) [Трамвай-фильм], cубтитры: отсутствуют
Формат: VHSRip-AVC, MKV, H.264, AAC
Страна: США
Режиссер: Билл Кройер
Жанр: фантастика
Продолжительность: 00:22:08
Год выпуска: 1990

Описание: Злые вирусы атакуют компьютеры по всему миру, а компьютерные воины созданы что бы их остановить, битва между ними выходит в реальный мир, где они преобразуют предметы домашнего обихода в смертоносные боевые машины!

Доп. информация: Это пилотная серия мультсериала, который так и не был выпущен. Такого рода мультфильмы был нормой для раскрутки продаж игрушек, в данном случае предполагалось раскрутить продажи одноименных игрушек от фирмы "Мателль", кассета шла в комплекте к некоторым игрушкам. На кассете так же записаны 2 рекламных ролика от производителя, демонстрирующие сами игрушки в реальности.
Для своего времени в мультфильме довольно таки хорошая компьютерная графика, и увлекательный сюжет, для детей США конца 1980-х, начала 1990-х, когда домашние компьютеры начали массово появляться у населения.



Видео: 480x360 (4:3), 29.97 fps, AVC MPEG4 (x264), ~302 kbps avg, 0.058 bit/pixel
Аудио 1: 44.1 kHz, AAC-2, 2 ch, ~128.00 kbps avg (русский, одноголосый)
Аудио 2: 44.1 kHz, AAC-2, 2 ch, ~96.00 kbps avg (английский, оригинальный)


General
Complete name : Computer Warriors. The Adventure Begins (1990).mkv
Format : Matroska
Format version : Version 4 / Version 2
File size : 83.7 MiB
Duration : 22 min 7 s
Overall bit rate : 529 kb/s
Encoded date : UTC 2017-10-29 16:55:32
Writing application : mkvmerge v7.1.0 ('Good Love') 32bit built on Jul 27 2014 12:59:18
Writing library : libebml v1.3.0 + libmatroska v1.4.1

Video
ID : 1
Format : AVC
Format/Info : Advanced Video Codec
Format profile :
Format settings : 1 Ref Frames
Format settings, CABAC : No
Format settings, ReFrames : 1 frame
Codec ID : V_MPEG4/ISO/AVC
Duration : 22 min 7 s
Bit rate : 302 kb/s
Width : 480 pixels
Height : 360 pixels
Display aspect ratio : 4:3
Frame rate mode : Constant
Frame rate : 29.970 (30000/1001) FPS
Color space : YUV
Chroma subsampling : 4:2:0
Bit depth : 8 bits
Scan type : Progressive
Bits/(Pixel*Frame) : 0.058
Stream size : 47.8 MiB (57%)
Default : Yes
Forced : No

Audio #1
ID : 2
Format : AAC
Format/Info : Advanced Audio Codec
Format profile : LC
Codec ID : A_AAC-2
Duration : 22 min 7 s
Bit rate : 128 kb/s
Channel(s) : 2 channels
Channel positions : Front: L R
Sampling rate : 44.1 kHz
Frame rate : 43.066 FPS (1024 SPF)
Compression mode : Lossy
Stream size : 20.3 MiB (24%)
Language : Russian
Default : Yes
Forced : No

Audio #2
ID : 3
Format : AAC
Format/Info : Advanced Audio Codec
Format profile : LC
Codec ID : A_AAC-2
Duration : 22 min 7 s
Bit rate : 96.0 kb/s
Channel(s) : 2 channels
Channel positions : Front: L R
Sampling rate : 44.1 kHz
Frame rate : 43.066 FPS (1024 SPF)
Compression mode : Lossy
Stream size : 15.2 MiB (18%)
Language : English
Default : No
Forced : No









   Похожие торренты   Торрент   Размер 
В этой теме нет новых непрочитанных сообщений. Солнечные приключения / Solar Adventure (Рой Томас) [1985, анимация, фантастика, боевик, VHSRip] VO

7 | 0

500.8 МБ

В этой теме нет новых непрочитанных сообщений. Приключения Эвоков / The Ewok Adventure (Джон Корти) [1984, Фантастика, Фэнтези, Приключения, Семейный, DVDRip-AVC] MVO / Фантастика

3 | 5

1.58 ГБ

В этой теме нет новых непрочитанных сообщений. Воины дракона / Dragon Warriors (Маклейн Нельсон, Стивен Шимек) [2015, фэнтези, боевик, комедия, IPTVRip] MVO / Фантастика

6 | 0

2.05 ГБ

В этой теме нет новых непрочитанных сообщений. Вне времени, 2 сезон 1-9 серия из 10 / Timeless [LostFilm] (Нил Маршалл, Чарльз Бисон, Билл Джирхарт) [2018, фантастика, боевик, драма, приключения, WEB-DLRip, P]

6 | 2

4.78 ГБ

В этой теме нет новых непрочитанных сообщений. Арти: приключение начинается / The Arti: The Adventure Begins (2015) HDRip от ExKinoRay | L1

2 | 0

1.45 ГБ

В этой теме нет новых непрочитанных сообщений. Воины дюн / Dune Warriors (1991) HDRip от Sem-te | L1

235 | 37

1.47 ГБ

В этой теме нет новых непрочитанных сообщений. Кровавые воины / Blood Warriors (1993) DVDRip | A

39 | 24

1.41 ГБ




Вы не можете начинать темы
Вы не можете отвечать на сообщения
Вы не можете редактировать свои сообщения
Вы не можете удалять свои сообщения
Вы не можете добавлять вложения

Перейти:  
 Вход
ppkBB3cker v.2 © 2008-2014 @ PPK
[ Time : 0.032s | 16 Queries | GZIP : Off ]

cron