img image001 image001 image001 image001 image001 image001 image001 image001 image001 image001 image001 image001 image001 image001 image001 image001

Planets Sun Sun Sun
Статистика раздачи
Автор: Снежана | Размер: 3.53 ГБ | Добавлен: 23 окт 2018
Раздают: 4    Качают: 3
Скачать торрент
Скачать торрент
Описание торрента

СообщениеДобавлено: 23 окт 2018 

Фитнес (1-11 серии из 20)

Перевод: Не требуется, cубтитры: отсутствуют
Формат: WEBRip-AVC, MKV, H.264, AC3
Страна: Россия
Режиссер: Антон Маслов
Жанр: комедия
Всего серий: 20
Продолжительность: 11 х ~ 00:26:00
Год выпуска: 2018

В ролях: Софья Зайка, Михаил Трухин, Татьяна Храмова (II), Роман Курцын, Алексей Демидов, Борис Дергачев, Марианна Шульц, Лёля Баранова, Анна Лауренская, Татьяна Сомова, Мария Малиновская, Александр Семчев, Данила Якушев, Евгений Михеев, Дмитрий Чеботарёв, Елизавета Мартинес, Ирина Бякова, Андрей Пынзару

Описание: «Быстрее, выше, сильнее»… В мире Аси такому девизу не место. Так же, как и комплексам из-за лишнего веса. Тем более, есть дела поважнее – подготовка к свадьбе в самом разгаре. Беспечный мир Аси рушится в одну секунду: девушка узнает, что любимого давно не устраивает ее фигура. А лучшие подруги не стесняются злословить о пышных формах за ее спиной. Восстанавливать веру в себя Ася отправляется в спортклуб. Вот только тренировки и программа по снижению веса оказываются не по карману начинающей спортсменке. Выход один – стать сотрудником фитнеса и заниматься бесплатно. Так у Аси появляется новая работа, знакомства и, главное, стимул доказать подругам, бывшему и всему миру, что «невозможное возможно».

Рейтинг и доп. информация:


Видео: 720x404 (16:9), 25 fps, AVC MPEG-4 (x264), ~ 1700 kbps , 0.234 bit/pixel
Аудио: 48 kHz, АС3, 2/0 (L,R), ~192.00 kbps avg
Внимание! Раздача ведётся путём добавления новых серий. При каждом добавлении создаётся новый торрент.
Чтобы начать докачку новой серии, пользователям необходимо сделать следующее:
1. Остановить скачивание.
2. Удалить старый торрент у себя из клиента (старые серии удалять не надо).
3. Скачать новый торрент и запустить его у себя в клиенте вместо старого, при этом указать клиенту путь в старую папку куда и должно происходить скачивание новых серий. Ваш клиент при этом должен произвести хеширование (проверку) старой папки и будет докачивать только те серии, которых у вас ещё нет. Старые серии при этом не удаляются, а продолжают раздаваться! Eсли вы уже удалили старые серии, то предотвратить повторную закачку старых серий можно, отжав галочку в соответствующих местах при запуске нового торрента.


Общее
Уникальный идентификатор : 201843192621666940120807560631878055015 (0x97D995BA4EC1372A94A61203420E7467)
Полное имя : C:\Fitnes.2018.AVC.ExKinoRay\Fitnes.e01.2018.AVC.ExKinoRay.mkv
Формат : Matroska
Версия формата : Version 2
Размер файла : 360 Мбайт
Продолжительность : 26 м. 34 с.
Общий поток : 1892 Кбит/сек
Название фильма : Fitnes e01 2018 from ExKinoRay
Дата кодирования : UTC 2018-10-08 16:11:26
Программа кодирования : mkvmerge v5.6.0 ('Kenya Kane') built on May 27 2012 16:44:04
Библиотека кодирования : libebml v1.2.3 + libmatroska v1.3.0

Видео
Идентификатор : 1
Формат : AVC
Формат/Информация : Advanced Video Codec
Профиль формата :
Настройки формата : CABAC / 12 Ref Frames
Параметр CABAC формата : Да
Параметр RefFrames формата : 12 кадров
Идентификатор кодека : V_MPEG4/ISO/AVC
Продолжительность : 26 м. 34 с.
Битрейт : 1700 Кбит/сек
Ширина : 720 пикселей
Высота : 404 пикселя
Соотношение сторон : 16:9
Режим частоты кадров : Постоянный
Частота кадров : 25,000 кадров/сек
Цветовое пространство : YUV
Субдискретизация насыщенности : 4:2:0
Битовая глубина : 8 бит
Тип развёртки : Прогрессивная
Бит/(Пиксели*Кадры) : 0.234
Размер потока : 316 Мбайт (88%)
Заголовок : Enigma
Библиотека кодирования : x264 core 152 r2851 ba24899
Настройки программы : cabac=1 / ref=12 / deblock=1:-2:-2 / analyse=0x3:0x113 / me=umh / subme=10 / psy=1 / psy_rd=1.05:0.10 / mixed_ref=1 / me_range=32 / chroma_me=1 / trellis=2 / 8x8dct=1 / cqm=0 / deadzone=21,11 / fast_pskip=0 / chroma_qp_offset=-3 / threads=12 / lookahead_threads=3 / sliced_threads=0 / nr=0 / decimate=0 / interlaced=0 / bluray_compat=0 / constrained_intra=0 / bframes=10 / b_pyramid=2 / b_adapt=2 / b_bias=0 / direct=3 / weightb=1 / open_gop=0 / weightp=2 / keyint=250 / keyint_min=25 / scenecut=40 / intra_refresh=0 / rc=2pass / mbtree=0 / bitrate=1700 / ratetol=1.0 / qcomp=0.60 / qpmin=0 / qpmax=51 / qpstep=4 / cplxblur=20.0 / qblur=0.5 / ip_ratio=1.40 / pb_ratio=1.30 / aq=1:1.00
Default : Да
Forced : Нет
Цветовой диапазон : Limited
Основные цвета : BT.709
Характеристики трансфера : BT.709
Коэффициенты матрицы : BT.709

Аудио
Идентификатор : 2
Формат : AC-3
Формат/Информация : Audio Coding 3
Коммерческое название : Dolby Digital
Идентификатор кодека : A_AC3
Продолжительность : 26 м. 34 с.
Вид битрейта : Постоянный
Битрейт : 192 Кбит/сек
Каналы : 2 канала
Channel layout : L R
Частота : 48,0 КГц
Частота кадров : 31,250 кадров/сек (1536 SPF)
Битовая глубина : 16 бит
Метод сжатия : С потерями
Размер потока : 36,5 Мбайт (10%)
Язык : Russian
ServiceKind/String : Complete Main
Default : Да
Forced : Нет








   Похожие торренты   Торрент   Размер 
В этой теме нет новых непрочитанных сообщений. Фитнес (1-11 серии из 20) (Антон Маслов) [2018, комедия, WEBRip]

0 | 0

3.44 ГБ

В этой теме нет новых непрочитанных сообщений. Фитнес (1-6 серии из 20) (Антон Маслов) [2018, комедия, WEBRip]

6 | 2

1.89 ГБ

В этой теме нет новых непрочитанных сообщений. Фитнес (1-10 серии из 20) (Антон Маслов) [2018, комедия, WEBRip-AVC]

1 | 4

3.03 ГБ

В этой теме нет новых непрочитанных сообщений. Фитнес (1-13 серии из 20) (Антон Маслов) [2018, комедия, WEBRip-AVC]

14 | 31

4.16 ГБ

В этой теме нет новых непрочитанных сообщений. Фитнес (1-3 серии из 20) (Антон Маслов) [2018, комедия, WEBRip]

20 | 29

985.65 МБ

В этой теме нет новых непрочитанных сообщений. Фитнес (1-12 серии из 20) (Антон Маслов) [2018, комедия, WEBRip-AVC]

3 | 9

3.85 ГБ

В этой теме нет новых непрочитанных сообщений. Фитнес (1-19 серии из 20) (Антон Маслов) [2018, комедия, WEBRip]

2 | 10

5.93 ГБ




Вы не можете начинать темы
Вы не можете отвечать на сообщения
Вы не можете редактировать свои сообщения
Вы не можете удалять свои сообщения
Вы не можете добавлять вложения

Перейти:  
 Вход
ppkBB3cker v.2 © 2008-2014 @ PPK
[ Time : 0.033s | 16 Queries | GZIP : Off ]

cron